<?xml version="1.0" standalone="no"?>
<!DOCTYPE svg PUBLIC "-//W3C//DTD SVG 1.1//EN" "http://www.w3.org/Graphics/SVG/1.1/DTD/svg11.dtd" >
<svg>
<metadata>
Created by FontForge 20120731 at Sat Jun 29 19:46:39 2019
 By www
Copyright (c) 2011 by Mark Simonson. All rights reserved.
</metadata>
<defs>
<font id="BookmaniaW01-Reg" horiz-adv-x="1156" >
  <font-face 
    font-family="BookmaniaW01-Reg"
    font-weight="400"
    font-stretch="normal"
    units-per-em="2000"
    panose-1="2 0 5 3 7 0 0 2 0 3"
    ascent="1516"
    descent="-484"
    x-height="902"
    cap-height="1400"
    bbox="-392 -527.825 2436 1848"
    underline-thickness="100"
    underline-position="-200"
    unicode-range="U+000D-2212"
  />
<missing-glyph horiz-adv-x="0" 
 />
    <glyph glyph-name=".notdef" horiz-adv-x="0" 
 />
    <glyph glyph-name=".null" horiz-adv-x="0" 
 />
    <glyph glyph-name="uni000D" unicode="&#xd;" horiz-adv-x="0" 
 />
    <glyph glyph-name="glyph229" horiz-adv-x="0" 
 />
    <glyph glyph-name="glyph229" horiz-adv-x="0" 
 />
    <glyph glyph-name="space" unicode=" " horiz-adv-x="502" 
 />
    <glyph glyph-name="exclam" unicode="!" horiz-adv-x="480" 
d="M204 372q-1 129 -8 226t-17 171.5t-21.5 131.5t-21 107t-16 98.5t-6.5 105.5q0 61 10 102.5t27 67t40 37t49 11.5t49 -11.5t40 -37t27 -67t10 -102.5q0 -57 -6.5 -105.5t-16 -98.5t-21 -107t-21.5 -131.5t-17 -171.5t-8 -226h-72zM114 106q0 26 9 49t25.5 39.5t39.5 26
t52 9.5q28 0 51 -9.5t39.5 -26t26 -39.5t9.5 -49t-9.5 -49t-26 -40t-39.5 -27t-51 -10q-29 0 -52 10t-39.5 27t-25.5 40t-9 49z" />
    <glyph glyph-name="quotedbl" unicode="&#x22;" horiz-adv-x="846" 
d="M578 872q-8 90 -21 157t-26.5 118t-23 90.5t-9.5 74.5q0 54 31.5 86t76.5 32t76.5 -31.5t31.5 -84.5q0 -36 -9.5 -76t-23 -91t-27 -118t-20.5 -157h-56zM212 872q-8 90 -21 157t-26.5 118t-23 90.5t-9.5 74.5q0 54 31.5 86t76.5 32t76.5 -31.5t31.5 -84.5q0 -36 -9.5 -76
t-23 -91t-27 -118t-20.5 -157h-56z" />
    <glyph glyph-name="numbersign" unicode="#" horiz-adv-x="1104" 
d="M616 408h-296l-114 -408h-86l114 408h-214v78h238l120 428h-250v80h272l116 406h86l-116 -406h294l116 406h86l-116 -406h218v-80h-240l-120 -428h250v-78h-272l-114 -408h-86zM344 486h294l120 428h-294z" />
    <glyph glyph-name="dollar" unicode="$" 
d="M554 -28q-65 5 -136 27t-130 69l-28 -68h-60l-130 430l46 14q52 -99 107.5 -172t111.5 -121t111.5 -72t107.5 -25v586q-50 18 -99 38t-94 44t-84 55t-67.5 72t-45 94.5t-16.5 122.5q0 55 22 117t71 114.5t126.5 89t188.5 41.5v92h84v-94q60 -6 112.5 -26t85.5 -52l24 52
h58l124 -390l-44 -16q-41 88 -83 152t-86 106.5t-91.5 64.5t-99.5 27v-540q76 -28 152 -59.5t137.5 -80t100 -120.5t38.5 -180q0 -78 -28.5 -146t-83 -120.5t-135 -85.5t-183.5 -40v-194h-84v194zM892 316q0 61 -20.5 106.5t-55 80t-80.5 59.5t-98 46v-550q70 10 118.5 36.5
t78.5 62.5t43.5 77.5t13.5 81.5zM326 1100q0 -54 18 -94.5t49 -71t73 -54t90 -42.5v504q-109 -12 -169.5 -73.5t-60.5 -168.5z" />
    <glyph glyph-name="percent" unicode="%" horiz-adv-x="1646" 
d="M62 980q0 99 20.5 180t61 138t100 88.5t136.5 31.5q78 0 137.5 -31.5t100 -88.5t61.5 -138t21 -180t-21 -180t-61.5 -138t-100 -88.5t-137.5 -31.5q-77 0 -136.5 31.5t-100 88.5t-61 138t-20.5 180zM222 980q0 -89 6.5 -159.5t24 -119t48 -74t79.5 -25.5t80.5 25.5t49 74
t24 119t6.5 159.5q0 90 -6.5 160.5t-24 118.5t-49 73.5t-80.5 25.5t-79.5 -25.5t-48 -73.5t-24 -118.5t-6.5 -160.5zM1236 1400h86l-912 -1400h-86zM946 420q0 99 20.5 180t61 138t100 88.5t136.5 31.5q78 0 137.5 -31.5t100 -88.5t61.5 -138t21 -180t-21 -180t-61.5 -138
t-100 -88.5t-137.5 -31.5q-77 0 -136.5 31.5t-100 88.5t-61 138t-20.5 180zM1106 420q0 -89 6.5 -159.5t24 -119t48 -74t79.5 -25.5t80.5 25.5t49 74t24 119t6.5 159.5q0 90 -6.5 160.5t-24 118.5t-49 73.5t-80.5 25.5t-79.5 -25.5t-48 -73.5t-24 -118.5t-6.5 -160.5z" />
    <glyph glyph-name="ampersand" unicode="&#x26;" horiz-adv-x="1496" 
d="M1240 700q-15 -124 -60 -235t-114 -203q22 -55 43.5 -92.5t45 -61t51.5 -34t64 -10.5q53 0 93.5 9t72.5 21v-72q-20 -12 -47 -21.5t-58 -15.5t-63.5 -9.5t-61.5 -3.5q-98 0 -167 33t-119 111q-89 -69 -196.5 -107.5t-229.5 -38.5q-102 0 -181.5 29t-134.5 78.5t-83.5 116
t-28.5 140.5q0 97 34.5 171.5t90 133.5t126 105.5t143.5 87.5q-44 38 -76 74.5t-53.5 74t-32 77t-10.5 84.5q0 43 18 93t57.5 93.5t101.5 72.5t151 29q72 0 127.5 -21.5t93.5 -58t57.5 -85t19.5 -101.5q0 -55 -20 -99.5t-53.5 -82t-77.5 -69.5t-93 -63q50 -38 96.5 -82.5
t90.5 -103t87.5 -136t87.5 -182.5q54 81 83 176t29 192q0 48 -11 78.5t-34 48.5t-58 26.5t-83 12.5v52h478v-52q-48 -4 -82.5 -13t-57.5 -28.5t-36.5 -53t-19.5 -85.5zM576 84q86 0 163.5 27t142.5 77q0 2 -1 3.5t-1 4.5q-52 124 -94.5 213t-82.5 155t-79.5 113.5
t-85.5 88.5q-50 -33 -96 -70.5t-80.5 -83t-55 -101t-20.5 -125.5q0 -59 18.5 -113.5t54.5 -96.5t90.5 -67t126.5 -25zM428 1152q0 -38 10 -70t30.5 -60.5t51.5 -56.5t72 -59q47 28 88.5 56t72 59.5t48 66.5t17.5 76q0 38 -12.5 71.5t-36.5 58t-60 38.5t-83 14q-43 0 -79 -13
t-62.5 -38t-41.5 -61t-15 -82z" />
    <glyph glyph-name="quotesingle" unicode="'" horiz-adv-x="480" 
d="M212 872q-8 90 -21 157t-26.5 118t-23 90.5t-9.5 74.5q0 54 31.5 86t76.5 32t76.5 -31.5t31.5 -84.5q0 -36 -9.5 -76t-23 -91t-27 -118t-20.5 -157h-56z" />
    <glyph glyph-name="parenleft" unicode="(" horiz-adv-x="618" 
d="M62 520q0 157 40.5 300t109 264.5t159 219.5t191.5 166l44 -52q-82 -62 -151 -158.5t-119.5 -215.5t-79 -253.5t-28.5 -270.5q0 -137 28.5 -271t79 -252.5t119.5 -215.5t151 -159l-44 -52q-101 68 -191.5 166t-159 219.5t-109 264t-40.5 300.5z" />
    <glyph glyph-name="parenright" unicode=")" horiz-adv-x="618" 
d="M558 520q0 -158 -40.5 -300.5t-109.5 -264t-160 -219.5t-192 -166l-44 52q82 62 151 159t119.5 215.5t79 252.5t28.5 271q0 136 -28.5 270.5t-79 253.5t-119.5 215.5t-151 158.5l44 52q101 -68 192 -166t160 -219.5t109.5 -264.5t40.5 -300z" />
    <glyph glyph-name="asterisk" unicode="*" horiz-adv-x="768" 
d="M458 1348q0 -24 -6 -47t-14.5 -50.5t-17.5 -62.5t-14 -84q40 29 66 54.5t45.5 46.5t36 38t36.5 29q32 18 63.5 10.5t46.5 -34.5t6.5 -57.5t-40.5 -48.5q-21 -12 -44 -18.5t-51 -13t-63 -16t-80 -28.5q45 -20 80 -30t63.5 -16.5t50.5 -12.5t42 -17q33 -20 42 -49.5
t-6 -56.5t-46 -34.5t-64 10.5q-20 12 -37 28.5t-36.5 37.5t-45.5 46t-65 54q6 -48 15 -83t17 -62t14 -50t6 -47q0 -38 -21 -60t-53 -22q-30 0 -52 22t-22 60q0 24 6 47t14.5 50.5t16.5 62.5t13 84q-39 -30 -64.5 -55.5t-45 -46.5t-36 -37.5t-36.5 -28.5q-33 -18 -64 -10.5
t-46 34.5t-6 56.5t42 49.5q19 11 41.5 17t50 12.5t62 16.5t78.5 30q-44 19 -78.5 28.5t-61.5 16t-49.5 13t-42.5 18.5q-32 18 -41.5 48.5t5.5 57.5t46.5 34.5t63.5 -10.5q20 -12 37 -29t36.5 -38t45.5 -46.5t65 -54.5q-5 49 -14 84t-17.5 62.5t-14.5 50.5t-6 47q0 36 22 59
t52 23q32 0 53 -23t21 -59z" />
    <glyph glyph-name="plus" unicode="+" horiz-adv-x="1104" 
d="M20 752h480v480h100v-480h484v-100h-484v-482h-100v482h-480v100z" />
    <glyph glyph-name="comma" unicode="," horiz-adv-x="480" 
d="M114 106q0 26 9 49t25.5 39.5t39.5 26t52 9.5q56 0 91 -38.5t35 -107.5q0 -49 -17 -103.5t-44 -107t-61 -99.5t-68 -80l-40 30q25 33 45 64t35 62t25.5 63t16.5 67q-35 0 -62 10t-45 27t-27.5 40t-9.5 49z" />
    <glyph glyph-name="hyphen" unicode="-" horiz-adv-x="486" 
d="M20 510h446v-118h-446v118z" />
    <glyph glyph-name="period" unicode="." horiz-adv-x="480" 
d="M114 106q0 26 9 49t25.5 39.5t39.5 26t52 9.5q28 0 51 -9.5t39.5 -26t26 -39.5t9.5 -49t-9.5 -49t-26 -40t-39.5 -27t-51 -10q-29 0 -52 10t-39.5 27t-25.5 40t-9 49z" />
    <glyph glyph-name="slash" unicode="/" horiz-adv-x="618" 
d="M532 1460h86l-532 -1888h-86z" />
    <glyph glyph-name="zero" unicode="0" 
d="M88 700q0 156 30.5 289.5t92 231.5t153.5 153.5t214 55.5t214 -55.5t153.5 -153.5t92 -231.5t30.5 -289.5t-30.5 -289.5t-92 -231.5t-153.5 -153.5t-214 -55.5t-214 55.5t-153.5 153.5t-92 231.5t-30.5 289.5zM298 700q0 -140 11 -258t41.5 -203.5t85 -133t142.5 -47.5
t142.5 47.5t85 133t41.5 203.5t11 258q0 141 -11 259t-41.5 203.5t-85 133.5t-142.5 48t-142.5 -48t-85 -133.5t-41.5 -203.5t-11 -259z" />
    <glyph glyph-name="one" unicode="1" 
d="M228 0v50q76 4 125.5 10t78 23.5t39.5 50.5t11 90v906q0 36 -14.5 50t-47.5 14h-190v42l370 194h74v-1206q0 -57 11.5 -90t40 -50.5t77.5 -23.5t125 -10v-50h-700z" />
    <glyph glyph-name="two" unicode="2" 
d="M132 994q0 103 33.5 184.5t90.5 137t134 85t164 29.5q96 0 176.5 -30t138.5 -84t90.5 -128.5t32.5 -163.5q0 -119 -51.5 -229t-138.5 -213.5t-202 -202t-242 -195.5h496q25 0 43 4t31.5 21t24 52t21.5 97h54l-48 -402h-54q0 14 -6.5 29t-27.5 15h-744v88q73 68 149 139.5
t146 146.5t132 153t108 159.5t72.5 165.5t26.5 172q0 151 -63.5 233.5t-194.5 82.5q-61 0 -114.5 -20.5t-93.5 -63t-63 -108t-23 -154.5h-98z" />
    <glyph glyph-name="three" unicode="3" 
d="M980 1118q0 -115 -65 -197t-181 -117q66 -12 123 -45.5t99 -82.5t66 -109.5t24 -126.5q0 -99 -34.5 -185t-102 -149t-166.5 -99.5t-227 -36.5q-71 0 -141.5 12.5t-126.5 38t-91 64t-35 91.5q0 22 7.5 41.5t21 33t31.5 21.5t38 8q41 0 67.5 -16.5t45.5 -40.5t35 -53
t36 -53t48 -40.5t72 -16.5q88 0 147.5 25t96 69.5t52.5 105.5t16 132q0 65 -21.5 125.5t-64 107t-107 74t-149.5 27.5h-36v88h48q68 0 118 23t82.5 61.5t48 87.5t15.5 102q0 49 -13.5 94.5t-42 80.5t-72 56t-104.5 21q-53 0 -101 -17.5t-85 -52.5t-60.5 -88t-27.5 -124h-98
q8 84 38.5 152.5t82 117.5t123.5 75.5t164 26.5q101 0 177 -27.5t127 -71.5t76.5 -100t25.5 -113z" />
    <glyph glyph-name="four" unicode="4" 
d="M650 0v360h-564v68l604 972h152v-950h228v-90h-228v-360h-192zM204 450h446v714z" />
    <glyph glyph-name="five" unicode="5" 
d="M516 928q123 0 219.5 -38.5t163.5 -104t102 -152t35 -183.5q0 -96 -34 -183t-98.5 -153t-159.5 -105t-216 -39q-71 0 -144 12.5t-131.5 38t-95.5 64t-37 91.5q0 22 7.5 41.5t20.5 33t30 21.5t36 8q41 0 68.5 -16.5t49 -40.5t40 -53t41 -53t53.5 -40.5t76 -16.5
q81 0 142.5 24.5t102.5 68.5t62 105t21 134q0 74 -27.5 137t-77.5 108.5t-119.5 71t-153.5 25.5q-71 0 -140 -15t-128 -47l-50 20l104 708h568q50 0 56 44h54l-26 -226h-590l-46 -328q44 18 102 28t120 10z" />
    <glyph glyph-name="six" unicode="6" 
d="M954 1346q-252 -29 -414 -160.5t-216 -371.5q27 18 59.5 34t68.5 28t74 19t76 7q115 0 202 -40t145.5 -105.5t88.5 -150t30 -172.5q0 -91 -35.5 -174.5t-100 -148t-155 -103t-199.5 -38.5q-116 0 -207 45.5t-154 127.5t-96 195t-33 248q0 126 31 234.5t87 199t135 162.5
t175 123.5t207 83t231 41.5v-84zM568 812q-35 0 -70.5 -7.5t-69.5 -21.5t-65.5 -33.5t-56.5 -43.5q-5 -35 -6.5 -70.5t-1.5 -73.5q0 -110 12.5 -202.5t44 -159.5t86 -104.5t137.5 -37.5q72 0 124.5 28.5t87 79t51.5 119.5t17 149q0 79 -18 148t-54 120t-90.5 80.5
t-127.5 29.5z" />
    <glyph glyph-name="seven" unicode="7" 
d="M348 0q17 161 62.5 322.5t112.5 317t153 301.5t184 277h-562q-26 0 -43.5 -4t-31 -21.5t-24 -52.5t-21.5 -96h-54l46 400h54q0 -14 6.5 -29t27.5 -15h760v-86q-107 -149 -186 -305.5t-134.5 -321.5t-89.5 -337t-50 -350h-210z" />
    <glyph glyph-name="eight" unicode="8" 
d="M1010 1112q0 -70 -21 -122.5t-57 -93t-84 -71t-102 -55.5q63 -28 121 -62t103 -81.5t71.5 -111.5t26.5 -151q0 -83 -32.5 -155t-95.5 -125t-156 -83.5t-214 -30.5q-119 0 -209.5 32.5t-151 84.5t-91 117t-30.5 130q0 76 23.5 134.5t64 103.5t94.5 78.5t114 61.5
q-50 26 -93 59t-74.5 77t-50 101t-18.5 131q0 53 24 114.5t78 114t140 87t210 34.5q99 0 175.5 -27t128.5 -71.5t79 -101.5t27 -118zM224 342q0 -54 19.5 -105.5t60.5 -91.5t105.5 -64.5t154.5 -24.5q89 0 150 23.5t98.5 61t53.5 83.5t16 90q0 52 -15.5 92.5t-43 72
t-65 56.5t-80.5 46t-90 40t-94 39q-55 -25 -104 -53.5t-86 -66t-58.5 -86t-21.5 -112.5zM336 1120q0 -64 24 -109.5t64.5 -79.5t94.5 -60t113 -51q52 23 98 49.5t80.5 59.5t55 76t20.5 99q0 51 -17 95t-51 76t-85.5 50.5t-120.5 18.5q-130 0 -203 -58.5t-73 -165.5z" />
    <glyph glyph-name="nine" unicode="9" 
d="M202 56q252 27 414 157.5t216 372.5q-28 -18 -60.5 -34t-68.5 -28t-74 -19t-75 -7q-114 0 -201 40t-146 105.5t-89 149.5t-30 173q0 91 36 175t100.5 148.5t154.5 102.5t199 38q116 0 207 -45.5t154 -127.5t96 -195t33 -248q0 -126 -31 -234.5t-87 -199t-135 -162.5
t-175 -123.5t-207 -83t-231 -41.5v86zM588 588q34 0 69.5 7.5t70 21t65.5 33t57 42.5q3 35 5.5 71t2.5 75q0 111 -12.5 204t-44 160t-86 104.5t-137.5 37.5q-71 0 -124 -29t-87.5 -80t-51.5 -120t-17 -149q0 -79 18 -148t54 -120t90.5 -80.5t127.5 -29.5z" />
    <glyph glyph-name="colon" unicode=":" horiz-adv-x="480" 
d="M114 796q0 26 9 49t25.5 39.5t39.5 26t52 9.5q28 0 51 -9.5t39.5 -26t26 -39.5t9.5 -49t-9.5 -49t-26 -40t-39.5 -27t-51 -10q-29 0 -52 10t-39.5 27t-25.5 40t-9 49zM114 106q0 26 9 49t25.5 39.5t39.5 26t52 9.5q28 0 51 -9.5t39.5 -26t26 -39.5t9.5 -49t-9.5 -49
t-26 -40t-39.5 -27t-51 -10q-29 0 -52 10t-39.5 27t-25.5 40t-9 49z" />
    <glyph glyph-name="semicolon" unicode=";" horiz-adv-x="480" 
d="M114 106q0 26 9 49t25.5 39.5t39.5 26t52 9.5q56 0 91 -38.5t35 -107.5q0 -49 -17 -103.5t-44 -107t-61 -99.5t-68 -80l-40 30q25 33 45 64t35 62t25.5 63t16.5 67q-35 0 -62 10t-45 27t-27.5 40t-9.5 49zM114 796q0 26 9 49t25.5 39.5t39.5 26t52 9.5q28 0 51 -9.5
t39.5 -26t26 -39.5t9.5 -49t-9.5 -49t-26 -40t-39.5 -27t-51 -10q-29 0 -52 10t-39.5 27t-25.5 40t-9 49z" />
    <glyph glyph-name="less" unicode="&#x3c;" horiz-adv-x="1104" 
d="M1042 230l-980 406v110l980 404v-108l-848 -352l848 -350v-110z" />
    <glyph glyph-name="equal" unicode="=" horiz-adv-x="1104" 
d="M20 950h1064v-100h-1064v100zM20 554h1064v-100h-1064v100z" />
    <glyph glyph-name="greater" unicode="&#x3e;" horiz-adv-x="1104" 
d="M60 340l850 350l-850 352v108l982 -404v-110l-982 -406v110z" />
    <glyph glyph-name="question" unicode="?" horiz-adv-x="938" 
d="M426 372h-84l-2 378q82 0 152 13.5t120.5 46.5t79 89t28.5 141q0 57 -21 109.5t-59.5 93t-92.5 65t-121 24.5q-41 0 -66 -14t-43 -34.5t-31.5 -44.5t-30 -44.5t-39.5 -34.5t-60 -14q-39 0 -66.5 28.5t-27.5 75.5q0 46 23.5 80t63 56.5t92 33t111.5 10.5q87 0 160 -18.5
t131.5 -51t102 -77t72.5 -95t43.5 -106t14.5 -110.5q0 -102 -33 -177t-92.5 -124.5t-141.5 -74.5t-179 -26zM258 106q0 26 9.5 49t26 39.5t40 26t52.5 9.5q28 0 51 -9.5t39.5 -26t26 -39.5t9.5 -49t-9.5 -49t-26 -40t-39.5 -27t-51 -10q-29 0 -52.5 10t-40 27t-26 40
t-9.5 49z" />
    <glyph glyph-name="at" unicode="@" horiz-adv-x="1870" 
d="M1246 82q-74 0 -116.5 33.5t-53.5 86.5q-56 -56 -126.5 -88t-159.5 -32t-154 38t-102.5 102.5t-45.5 150.5t16 181q21 85 69 159.5t115 130t149 87t171 31.5q81 0 134.5 -27t83.5 -75l142 102h56l-162 -648q-6 -26 -9 -50.5t3 -44t23 -31.5t51 -12q66 0 133 39.5
t121 109.5t88 165t34 206q0 158 -56 273t-150 190t-217.5 111t-258.5 36q-112 0 -218 -28.5t-201 -80.5t-174.5 -124.5t-137 -160.5t-89.5 -189t-32 -209q0 -183 61 -328t168 -246t252.5 -154.5t314.5 -53.5q91 0 174 16t159.5 44.5t148.5 68.5t140 89l42 -64
q-68 -47 -141 -89t-154 -73.5t-173 -49.5t-198 -18q-180 0 -339.5 56.5t-279.5 165.5t-189.5 269t-69.5 367q0 115 35.5 224.5t98.5 206t150 177t191 138.5t220.5 90t238.5 32q161 0 300 -45.5t241 -133t160.5 -215.5t58.5 -292q0 -89 -19.5 -168.5t-54.5 -148t-84.5 -123.5
t-109 -93.5t-127.5 -59.5t-141 -21zM844 170q74 0 133 35t101 97l116 462q-15 54 -56.5 83t-115.5 29q-66 0 -118 -26.5t-91.5 -73.5t-67.5 -112t-47 -142q-20 -77 -24 -142t11.5 -111.5t54 -72.5t104.5 -26z" />
    <glyph glyph-name="A" unicode="A" horiz-adv-x="1330" 
d="M730 1400l458 -1204q13 -35 27.5 -61t34 -43.5t45.5 -27.5t61 -14v-50h-520v50q56 4 91.5 12t53 22.5t18.5 36t-11 53.5l-100 256h-544l-96 -256q-11 -29 -7.5 -50.5t23.5 -36.5t58 -24t96 -13v-50h-444v50q75 8 116 40.5t64 95.5l462 1214h114zM378 518h476l-240 626z
" />
    <glyph glyph-name="B" unicode="B" horiz-adv-x="1408" 
d="M1320 398q0 -98 -42 -172t-117 -124.5t-180 -76t-231 -25.5h-690v50q60 4 98 10t59 23.5t29 50.5t8 90v952q0 58 -8 91t-29 50t-59 23t-98 10v50h656q124 0 227.5 -17.5t178.5 -58t116.5 -107t41.5 -163.5q0 -124 -80.5 -198.5t-229.5 -103.5q84 -17 149 -50t110 -79
t68 -103.5t23 -121.5zM1100 398q0 69 -22.5 126t-64.5 98t-102.5 63.5t-136.5 22.5h-322v-558q0 -29 15.5 -44.5t44.5 -15.5h238q90 0 156 22t109 62.5t64 97.5t21 126zM1060 1054q0 136 -84.5 196t-253.5 60h-210q-29 0 -44.5 -15.5t-15.5 -44.5v-454h282q76 0 136.5 14.5
t102.5 45.5t64.5 80t22.5 118z" />
    <glyph glyph-name="C" unicode="C" horiz-adv-x="1400" 
d="M1322 1010l-46 -16q-46 83 -100.5 148t-117.5 110t-135.5 68.5t-154.5 23.5q-119 0 -206 -48t-143.5 -133.5t-83.5 -204t-27 -258.5t27 -258t83 -203.5t143 -133t207 -47.5q82 0 158.5 22t140.5 64t111.5 103.5t71.5 140.5l90 -30q-34 -92 -86.5 -164t-124.5 -121.5
t-165 -76t-208 -26.5q-147 0 -270 54.5t-211.5 152t-137.5 231.5t-49 292t49 292t137.5 231.5t211.5 152t270 54.5q116 0 205 -28t149 -72l30 70h58z" />
    <glyph glyph-name="D" unicode="D" horiz-adv-x="1528" 
d="M1220 700q0 186 -41 304.5t-112.5 186.5t-168 93.5t-208.5 25.5h-178q-29 0 -44.5 -15.5t-15.5 -44.5v-1100q0 -29 15.5 -44.5t44.5 -15.5h178q112 0 208.5 25.5t168 93.5t112.5 186.5t41 304.5zM1440 700q0 -176 -53 -307.5t-150.5 -218.5t-236 -130.5t-310.5 -43.5
h-630v50q60 4 98 10t59 23.5t29 50.5t8 90v952q0 58 -8 91t-29 50t-59 23t-98 10v50h630q172 0 310.5 -43.5t236 -130.5t150.5 -218.5t53 -307.5z" />
    <glyph glyph-name="E" unicode="E" horiz-adv-x="1376" 
d="M720 90q113 0 200.5 22t158 62.5t128.5 96t113 123.5l42 -26l-196 -368h-1106v50q60 4 98 10t59 23.5t29 50.5t8 90v952q0 58 -8 91t-29 50t-59 23t-98 10v50h1108l134 -326l-42 -22q-47 64 -99 112t-114.5 80.5t-138.5 49t-172 16.5h-224q-29 0 -44.5 -15.5t-15.5 -44.5
v-474h324q55 0 90 12.5t55 36.5t29 60.5t14 84.5h52v-478h-52q-5 48 -14 84.5t-29 60.5t-55 36.5t-90 12.5h-324v-536q0 -29 15.5 -44.5t44.5 -15.5h208z" />
    <glyph glyph-name="F" unicode="F" horiz-adv-x="1316" 
d="M452 776h324q55 0 90 12.5t55 36.5t29 60.5t14 84.5h52v-478h-52q-5 48 -14 84.5t-29 60.5t-55 36.5t-90 12.5h-324v-462q0 -57 8 -90t29 -50.5t59 -23.5t98 -10v-50h-586v50q60 4 98 10t59 23.5t29 50.5t8 90v952q0 58 -8 91t-29 50t-59 23t-98 10v50h1108l134 -326
l-42 -22q-47 64 -99 112t-114.5 80.5t-138.5 49t-172 16.5h-224q-29 0 -44.5 -15.5t-15.5 -44.5v-474z" />
    <glyph glyph-name="G" unicode="G" horiz-adv-x="1518" 
d="M1174 114q-33 -31 -75.5 -57t-95 -45.5t-114.5 -30.5t-135 -11q-146 0 -268.5 54.5t-211 152t-137.5 231.5t-49 292t49 292t137.5 231.5t211.5 152t270 54.5q115 0 202.5 -28t147.5 -72l28 70h60l122 -390l-46 -16q-94 171 -217 260.5t-283 89.5q-120 0 -207 -48
t-144 -133.5t-84 -204t-27 -258.5t27 -258t83 -203.5t142 -133t204 -47.5q66 0 122.5 14.5t101.5 35.5t76.5 46t47.5 46v216q0 57 -7.5 90t-28.5 50.5t-58.5 23.5t-97.5 10v50h578v-50q-57 -4 -93.5 -10t-57.5 -23.5t-29 -50.5t-8 -90v-416h-60z" />
    <glyph glyph-name="H" unicode="H" horiz-adv-x="1578" 
d="M932 0v50q60 4 98 10t59 23.5t29 50.5t8 90v462h-674v-462q0 -57 8 -90t29 -50.5t59 -23.5t98 -10v-50h-586v50q60 4 98 10t59 23.5t29 50.5t8 90v952q0 58 -8 91t-29 50t-59 23t-98 10v50h586v-50q-60 -4 -98 -10t-59 -23t-29 -50t-8 -91v-400h674v400q0 58 -8 91
t-29 50t-59 23t-98 10v50h586v-50q-60 -4 -98 -10t-59 -23t-29 -50t-8 -91v-952q0 -57 8 -90t29 -50.5t59 -23.5t98 -10v-50h-586z" />
    <glyph glyph-name="I" unicode="I" horiz-adv-x="706" 
d="M60 0v50q60 4 98 10t59 23.5t29 50.5t8 90v952q0 58 -8 91t-29 50t-59 23t-98 10v50h586v-50q-60 -4 -98 -10t-59 -23t-29 -50t-8 -91v-952q0 -57 8 -90t29 -50.5t59 -23.5t98 -10v-50h-586z" />
    <glyph glyph-name="J" unicode="J" horiz-adv-x="688" 
d="M452 56q0 -122 -29 -210t-82 -145t-127 -84t-164 -27q-74 0 -125 17t-83.5 43t-47 56.5t-14.5 57.5q0 50 30 79t72 29q34 0 55 -13.5t34.5 -33.5t23.5 -44t21.5 -44t28.5 -33.5t45 -13.5q40 0 70.5 16t51.5 55t31.5 104t10.5 163v1148q0 58 -8 91t-29 50t-59 23t-98 10
v50h586v-50q-61 -4 -99 -10t-59 -23t-28.5 -50t-7.5 -91v-1120z" />
    <glyph glyph-name="K" unicode="K" horiz-adv-x="1474" 
d="M60 0v50q60 4 98 10t59 23.5t29 50.5t8 90v952q0 58 -8 91t-29 50t-59 23t-98 10v50h586v-50q-60 -4 -98 -10t-59 -23t-29 -50t-8 -91v-488l568 516q18 16 30.5 39t4 45.5t-45.5 39.5t-117 22v50h540v-50q-43 -4 -75.5 -12.5t-64 -26t-67 -46.5t-83.5 -73l-382 -344
l542 -680q26 -34 55.5 -56.5t57 -36t51.5 -19.5t40 -6v-50h-592v50q115 8 141.5 47t-35.5 119l-404 498l-164 -146v-344q0 -57 8 -90t29 -50.5t59 -23.5t98 -10v-50h-586z" />
    <glyph glyph-name="L" unicode="L" horiz-adv-x="1278" 
d="M642 90q106 0 189 22t152 62.5t126.5 96t112.5 123.5l40 -26l-196 -368h-1006v50q60 4 98 10t59 23.5t29 50.5t8 90v952q0 58 -8 91t-29 50t-59 23t-98 10v50h586v-50q-60 -4 -98 -10t-59 -23t-29 -50t-8 -91v-1026q0 -29 15.5 -44.5t44.5 -15.5h130z" />
    <glyph glyph-name="M" unicode="M" horiz-adv-x="1788" 
d="M1142 0v50q61 4 99 10t59 23.5t28.5 50.5t7.5 90v1026l-456 -1250h-66l-456 1248v-1024q0 -57 8 -90t29 -50.5t59 -23.5t98 -10v-50h-492v50q60 4 98 10t60 23.5t30 50.5t8 90v952q0 58 -8 91t-30 50t-60 23t-98 10v50h454l384 -1054l386 1054h444v-50q-60 -4 -98 -10
t-59 -23t-29 -50t-8 -91v-952q0 -57 8 -90t29 -50.5t59 -23.5t98 -10v-50h-586z" />
    <glyph glyph-name="N" unicode="N" horiz-adv-x="1516" 
d="M60 0v50q60 4 98 10t60 23.5t30 50.5t8 90v952q0 58 -8 91t-30 50t-60 23t-98 10v50h436l684 -1046v822q0 58 -7 91t-27.5 50t-57.5 23t-98 10v50h484v-50q-60 -4 -97.5 -10t-58.5 -23t-28.5 -50t-7.5 -91v-1176h-108l-816 1248v-1024q0 -57 8 -90t30 -50.5t60 -23.5
t98 -10v-50h-494z" />
    <glyph glyph-name="O" unicode="O" horiz-adv-x="1506" 
d="M88 700q0 158 46 292t132 231.5t209 152t277 54.5t277.5 -54.5t210 -152t132.5 -231.5t46 -292t-46 -292t-132.5 -231.5t-210 -152t-277.5 -54.5t-277 54.5t-209 152t-132 231.5t-46 292zM308 700q0 -140 23.5 -258t76 -203.5t137.5 -133t207 -47.5q123 0 208 47.5
t138 133t76.5 203.5t23.5 258t-23.5 258.5t-76.5 204t-138 133.5t-208 48q-122 0 -207 -48t-137.5 -133.5t-76 -204t-23.5 -258.5z" />
    <glyph glyph-name="P" unicode="P" horiz-adv-x="1378" 
d="M60 0v50q60 4 98 10t59 23.5t29 50.5t8 90v952q0 58 -6.5 91t-27 50t-58.5 23t-102 10v50h694q124 0 228 -19t179 -61.5t117 -110.5t42 -165q0 -98 -42 -165.5t-117 -110t-179.5 -61.5t-229.5 -19h-300v-464q0 -57 8 -90t29 -50.5t59 -23.5t98 -10v-50h-586zM1100 1044
q0 136 -90 201t-256 65h-242q-29 0 -44.5 -15.5t-15.5 -44.5v-474h300q168 0 258 65t90 203z" />
    <glyph glyph-name="Q" unicode="Q" horiz-adv-x="1506" 
d="M88 700q0 158 46 292t132 231.5t209 152t277 54.5t277.5 -54.5t210 -152t132.5 -231.5t46 -292q0 -144 -38.5 -268.5t-110.5 -219t-174.5 -155.5t-230.5 -77q3 -135 55.5 -192.5t148.5 -57.5q51 0 93.5 17t72.5 48.5t47 76t17 100.5h96q0 -86 -29.5 -150.5t-79 -107.5
t-115 -64.5t-138.5 -21.5q-89 0 -159.5 24.5t-120 69.5t-77.5 110t-31 146q-130 17 -233 78t-175 156t-110 219.5t-38 268.5zM308 700q0 -140 23.5 -258t76 -203.5t137.5 -133t207 -47.5q123 0 208 47.5t138 133t76.5 203.5t23.5 258t-23.5 258.5t-76.5 204t-138 133.5
t-208 48q-122 0 -207 -48t-137.5 -133.5t-76 -204t-23.5 -258.5z" />
    <glyph glyph-name="R" unicode="R" horiz-adv-x="1444" 
d="M1320 1044q0 -86 -34.5 -149.5t-95.5 -106t-145 -65.5t-183 -29l374 -524q18 -25 38 -45.5t46.5 -35.5t62 -25t85.5 -14v-50h-342l-486 688h-188v-464q0 -57 8 -90t29 -50.5t59 -23.5t98 -10v-50h-586v50q60 4 98 10t59 23.5t29 50.5t8 90v952q0 58 -6.5 91t-27 50
t-58.5 23t-102 10v50h694q124 0 228 -19t179 -61.5t117 -110.5t42 -165zM1100 1044q0 136 -90 201t-256 65h-242q-29 0 -44.5 -15.5t-15.5 -44.5v-474h300q168 0 258 65t90 203z" />
    <glyph glyph-name="S" unicode="S" horiz-adv-x="1372" 
d="M324 1122q0 -55 27 -94t73 -68t107.5 -50t130.5 -39.5t142 -37.5t142 -43t130.5 -56t107.5 -77.5t73 -107t27 -143.5q0 -96 -40.5 -176t-113 -138t-172.5 -90t-218 -32q-130 0 -242 30.5t-204 81.5l-34 -82h-60l-130 430l46 14q52 -100 120.5 -173t148 -121t168 -71
t181.5 -23q77 0 145 21.5t118 59.5t79 91t28 116q0 61 -27 105.5t-73 76.5t-107.5 55.5t-130 42.5t-141 37.5t-141.5 41t-130 52.5t-107 72t-72.5 99.5t-26.5 135.5q0 80 37.5 147.5t102 116.5t151.5 76.5t187 27.5q69 0 128.5 -8.5t109 -22t89.5 -32t71 -37.5l28 70h60
l122 -390l-44 -16q-41 84 -95 149t-122.5 110t-151.5 68t-183 23q-74 0 -132.5 -18t-99 -48t-61.5 -70.5t-21 -85.5z" />
    <glyph glyph-name="T" unicode="T" horiz-adv-x="1334" 
d="M562 1250q0 29 -15.5 44.5t-44.5 15.5q-82 0 -140.5 -11.5t-106 -41t-89.5 -79.5t-90 -126l-44 22l154 370h50q15 -44 60 -44h742q45 0 60 44h50l154 -370l-42 -22q-48 76 -92 126t-94 79.5t-111 41t-143 11.5q-29 0 -44.5 -15.5t-15.5 -44.5v-1026q0 -57 8 -90t29 -50.5
t59 -23.5t98 -10v-50h-586v50q60 4 98 10t59 23.5t29 50.5t8 90v1026z" />
    <glyph glyph-name="U" unicode="U" horiz-adv-x="1532" 
d="M434 412q0 -92 29.5 -158t82 -108.5t125.5 -63t159 -20.5q74 0 140.5 21t116 63.5t78.5 107.5t29 154v768q0 58 -8 91t-29 50t-59 23t-98 10v50h490v-50q-60 -4 -98 -10t-59 -23t-29 -50t-8 -91v-768q0 -89 -30.5 -168.5t-92.5 -139.5t-156 -95t-221 -35
q-131 0 -234.5 27.5t-176 82.5t-111 137t-38.5 191v768q0 58 -8 91t-29 50t-59 23t-98 10v50h586v-50q-60 -4 -98 -10t-59 -23t-29 -50t-8 -91v-764z" />
    <glyph glyph-name="V" unicode="V" horiz-adv-x="1330" 
d="M602 0l-458 1204q-14 35 -29 61t-34.5 43.5t-45.5 27.5t-61 14v50h522v-50q-56 -4 -91.5 -11.5t-53 -21.5t-18.5 -36t11 -53l374 -970l366 970q10 28 6.5 49t-23.5 36t-58.5 24t-96.5 13v50h444v-50q-75 -8 -115.5 -40.5t-64.5 -95.5l-460 -1214h-114z" />
    <glyph glyph-name="W" unicode="W" horiz-adv-x="1950" 
d="M502 1350q-60 -4 -96.5 -14.5t-53.5 -30.5t-16 -51.5t16 -77.5l278 -866l292 900q-13 36 -25.5 61t-30 41.5t-41.5 25t-59 12.5v50h526v-50q-61 -4 -97.5 -14.5t-53 -30.5t-15.5 -51.5t16 -77.5l278 -866l280 866q15 46 16.5 78t-14.5 52t-52 30t-96 14v50h422v-50
q-37 -4 -63 -14.5t-46 -30.5t-35.5 -51.5t-31.5 -77.5l-378 -1176h-112l-338 1056l-340 -1056h-112l-376 1176q-15 46 -28.5 77.5t-31.5 51.5t-44 30.5t-66 14.5v50h528v-50z" />
    <glyph glyph-name="X" unicode="X" horiz-adv-x="1366" 
d="M-16 0v50q59 4 101 14.5t74 30.5t59 51.5t56 77.5l312 478l-308 474q-29 46 -50.5 77.5t-46.5 51.5t-58.5 30.5t-86.5 14.5v50h566v-50q-60 -4 -92.5 -14t-41.5 -30t3 -51t41 -77l210 -316l206 314q30 46 42.5 77.5t3.5 51.5t-42 30.5t-94 14.5v50h488v-50
q-58 -4 -99 -14.5t-73.5 -30.5t-59.5 -51.5t-56 -77.5l-260 -404l358 -548q30 -45 55 -76.5t52 -52t60 -31t79 -14.5v-50h-572v50q61 4 94 14.5t42 30.5t-3.5 51.5t-42.5 77.5l-258 390l-256 -392q-29 -45 -38.5 -76t3.5 -51t48.5 -30.5t96.5 -14.5v-50h-512z" />
    <glyph glyph-name="Y" unicode="Y" horiz-adv-x="1260" 
d="M342 50q60 4 98 10t59 23.5t29 50.5t8 90v314l-364 638q-26 44 -46 75.5t-41 52t-47.5 31.5t-63.5 15v50h526v-50q-52 -4 -84.5 -15t-46 -31.5t-7.5 -51.5t32 -74l294 -516l280 514q24 45 29 76.5t-8.5 52t-47 31t-85.5 14.5v50h430v-50q-42 -4 -71.5 -14.5t-52.5 -30.5
t-43.5 -51.5t-44.5 -77.5l-340 -632v-320q0 -57 8 -90t29 -50.5t59 -23.5t98 -10v-50h-586v50z" />
    <glyph glyph-name="Z" unicode="Z" horiz-adv-x="1304" 
d="M948 1310h-282q-97 0 -172 -16.5t-136.5 -49t-112 -80.5t-97.5 -112l-42 22l134 326h972v-50l-884 -1260h294q115 0 201.5 22t154.5 62.5t123.5 96t110.5 123.5l40 -26l-196 -368h-994v50z" />
    <glyph glyph-name="bracketleft" unicode="[" horiz-adv-x="650" 
d="M170 1440h438v-80h-278v-1680h278v-80h-438v1840z" />
    <glyph glyph-name="backslash" unicode="\" horiz-adv-x="618" 
d="M618 -428h-86l-532 1888h86z" />
    <glyph glyph-name="bracketright" unicode="]" horiz-adv-x="650" 
d="M480 -400h-438v80h278v1680h-278v80h438v-1840z" />
    <glyph glyph-name="asciicircum" unicode="^" horiz-adv-x="1104" 
d="M550 1166l-370 -466h-76l404 700h86l406 -700h-78z" />
    <glyph glyph-name="underscore" unicode="_" horiz-adv-x="1104" 
d="M0 -138h1106v-84h-1106v84z" />
    <glyph glyph-name="grave" unicode="`" horiz-adv-x="1032" 
d="M570 1018h-82l-266 234q-24 21 -33 32.5t-9 25.5t7.5 22t24.5 8h118q23 0 35 -8.5t21 -23.5z" />
    <glyph glyph-name="a" unicode="a" horiz-adv-x="1036" 
d="M828 -22q-60 0 -102 29.5t-54 94.5q-35 -24 -74 -47t-81 -41t-86.5 -29t-90.5 -11q-62 0 -112 13.5t-85 40.5t-54 67t-19 93q0 81 45.5 137.5t125.5 95.5t189.5 65.5t237.5 47.5v120q0 55 -7 93.5t-23.5 62.5t-44 35t-69.5 11q-172 0 -208 -146q-14 -51 -40.5 -73.5
t-59.5 -22.5q-38 0 -58 22.5t-20 67.5q0 43 27.5 84t79 73t124.5 51.5t165 19.5q64 0 120.5 -13t99 -45.5t67.5 -87t25 -136.5v-470q0 -56 15.5 -82t48.5 -26q15 0 33 5t41 17v-72q-32 -21 -69 -32.5t-87 -11.5zM404 76q68 0 133.5 29.5t130.5 74.5v278q-92 -14 -166.5 -32
t-128 -46.5t-82.5 -69t-29 -98.5q0 -35 10.5 -61t29.5 -42.5t45 -24.5t57 -8z" />
    <glyph glyph-name="b" unicode="b" horiz-adv-x="1096" 
d="M32 1274l250 156h62v-600q47 48 112.5 75t153.5 27q100 0 177.5 -37t130.5 -101.5t80.5 -152.5t27.5 -189q0 -102 -28 -190t-82 -153t-134 -102t-184 -37q-92 0 -158.5 27t-113.5 77l-88 -104h-70v1190q0 42 -14.5 58t-47.5 16h-74v40zM566 846q-74 0 -129 -29.5
t-93 -80.5v-570q38 -51 93 -80.5t129 -29.5q75 0 126 29t82.5 81.5t45.5 125.5t14 160t-14 159.5t-45.5 124.5t-82.5 81t-126 29z" />
    <glyph glyph-name="c" unicode="c" horiz-adv-x="964" 
d="M868 706q0 -45 -27 -68.5t-65 -23.5q-33 0 -59 22.5t-37 73.5q-11 65 -49.5 104.5t-116.5 39.5q-71 0 -119 -30t-77.5 -84t-42.5 -127.5t-13 -160.5t18 -160t54 -126t91.5 -82.5t130.5 -29.5q53 0 96.5 16.5t78.5 46.5t63.5 73.5t51.5 97.5l72 -38q-26 -62 -60.5 -113.5
t-81 -88.5t-105.5 -57.5t-133 -20.5q-112 0 -199 37t-147 101.5t-91 152.5t-31 191q0 102 33 189.5t92 152t140.5 101.5t178.5 37q79 0 144.5 -20t112 -52t72 -72.5t25.5 -81.5z" />
    <glyph glyph-name="d" unicode="d" horiz-adv-x="1116" 
d="M618 1274l248 156h62v-1276q0 -27 6 -45t21 -30t41.5 -18.5t67.5 -10.5v-50q-77 0 -156 -7.5t-156 -22.5v104q-45 -50 -111 -77t-155 -27q-100 0 -177.5 37t-130.5 102t-80.5 153t-27.5 190q0 101 27.5 189t80.5 152.5t130.5 101.5t177.5 37q89 0 155 -27t111 -77v340
q0 36 -14.5 51t-49.5 15h-70v40zM530 56q74 0 129 29.5t93 80.5v570q-38 51 -93 80.5t-129 29.5q-75 0 -126.5 -29t-83 -81t-45 -124.5t-13.5 -159.5t13.5 -160t45 -125.5t83 -81.5t126.5 -29z" />
    <glyph glyph-name="e" unicode="e" horiz-adv-x="1018" 
d="M266 548q-2 -24 -3 -48t-1 -48q0 -87 16.5 -160t53.5 -126t96.5 -82.5t145.5 -29.5q98 0 177.5 61.5t124.5 168.5l74 -34q-26 -62 -63.5 -113.5t-85.5 -88.5t-108 -57.5t-131 -20.5q-120 0 -212 37t-154 101.5t-94 152.5t-32 191q0 102 31 189.5t89.5 152t142 101.5
t189.5 37q88 0 160.5 -25.5t124.5 -74.5t80.5 -120.5t28.5 -163.5h-650zM524 854q-58 0 -100 -16t-72 -45.5t-48 -71t-28 -93.5h462q0 55 -16.5 97t-45 70.5t-67.5 43.5t-85 15z" />
    <glyph glyph-name="f" unicode="f" horiz-adv-x="600" 
d="M52 902h136v118q0 94 27.5 170t76 129.5t115.5 82t147 28.5q71 0 114.5 -29.5t43.5 -76.5q0 -42 -26.5 -69t-67.5 -27q-35 0 -53 15t-32 33t-29.5 33t-43.5 15q-44 0 -70 -38t-26 -112v-272h196v-82h-196v-666q0 -27 7.5 -45t24 -30t44 -18.5t68.5 -10.5v-50h-456v50
q41 4 67.5 10.5t41.5 18.5t21 30t6 45v666h-136v82z" />
    <glyph glyph-name="g" unicode="g" horiz-adv-x="1050" 
d="M1022 938q0 -30 -19 -54t-57 -24q-21 0 -35.5 8t-26.5 17t-24.5 17t-29.5 8q-27 0 -44.5 -19t-31.5 -43q69 -62 93.5 -132t24.5 -138q0 -74 -25.5 -138.5t-74.5 -112t-120 -74.5t-162 -27q-42 0 -79.5 5.5t-72.5 16.5q-39 8 -68.5 5t-49 -13t-29 -25t-9.5 -31
q0 -25 18 -40.5t62.5 -24.5t120 -14t191.5 -9q115 -4 193 -19.5t124.5 -44t66.5 -69.5t20 -95q0 -64 -31.5 -113.5t-89.5 -83.5t-140.5 -51.5t-184.5 -17.5q-99 0 -182.5 10.5t-145 35t-96.5 65.5t-36 103q-2 57 29 96.5t81 65.5q-60 26 -84 65.5t-24 96.5q0 37 11.5 67.5
t31 52.5t46.5 35.5t59 18.5q-57 48 -86.5 116t-29.5 148q0 76 25.5 140.5t75 112t120.5 74.5t163 27q60 0 112 -12t90 -32q20 32 45.5 58.5t54 45t58.5 28.5t60 10q48 0 80 -24t32 -68zM288 578q0 -59 9.5 -109.5t32.5 -87t62 -57t98 -20.5q58 0 97 20.5t61.5 57t32 87
t9.5 109.5t-9.5 109.5t-32 87.5t-61.5 58t-97 21q-59 0 -98 -21t-62 -58t-32.5 -87.5t-9.5 -109.5zM548 -78q-161 6 -260 24q-48 -17 -70 -45.5t-22 -66.5q0 -39 23 -68t66.5 -48t106 -28.5t140.5 -9.5q77 0 136.5 11.5t100 31t61 46t20.5 55.5q0 31 -14.5 49t-49 28.5
t-92.5 14.5t-146 6z" />
    <glyph glyph-name="h" unicode="h" horiz-adv-x="1144" 
d="M646 0v50q41 4 67 10.5t41 18.5t20.5 30t5.5 45v508q0 44 -11 76t-31.5 52.5t-49.5 30t-64 9.5q-69 0 -135 -22.5t-125 -63.5v-590q0 -27 5.5 -45t20.5 -30t41 -18.5t67 -10.5v-50h-446v50q41 4 67.5 10.5t41.5 18.5t21 30t6 45v1014q0 36 -14.5 51t-47.5 15h-74v40
l250 156h62v-598q29 18 65.5 36t77 32t83.5 23t84 9q44 0 94 -10.5t92 -40.5t70 -82.5t28 -136.5v-508q0 -27 5.5 -45t20.5 -30t41 -18.5t67 -10.5v-50h-446z" />
    <glyph glyph-name="i" unicode="i" horiz-adv-x="552" 
d="M52 0v50q41 4 67.5 10.5t41.5 18.5t21 30t6 45v516q0 36 -14.5 51t-47.5 15h-74v40l250 156h62v-778q0 -27 5.5 -45t20.5 -30t41 -18.5t67 -10.5v-50h-446zM162 1254q0 23 8.5 44t23.5 36.5t37 24.5t49 9q26 0 48 -9t37.5 -24.5t24 -36.5t8.5 -44t-8.5 -43t-24 -35.5
t-37.5 -24.5t-48 -9q-27 0 -49 9t-37 24.5t-23.5 35.5t-8.5 43z" />
    <glyph glyph-name="j" unicode="j" horiz-adv-x="532" 
d="M-4 -398q-32 0 -60 7t-49 20.5t-33 34.5t-12 50q0 18 7 34.5t19 28.5t28.5 19.5t35.5 7.5q33 0 51.5 -15t32 -33t28 -33t40.5 -15q22 0 41 8.5t33 26.5t22 46.5t8 68.5v812q0 36 -14.5 51t-47.5 15h-74v40l250 156h62v-896q0 -111 -28.5 -192.5t-78 -135.5t-116.5 -80
t-145 -26zM162 1254q0 23 8.5 44t23.5 36.5t37 24.5t49 9q26 0 48 -9t37.5 -24.5t24 -36.5t8.5 -44t-8.5 -43t-24 -35.5t-37.5 -24.5t-48 -9q-27 0 -49 9t-37 24.5t-23.5 35.5t-8.5 43z" />
    <glyph glyph-name="k" unicode="k" horiz-adv-x="1074" 
d="M52 0v50q41 4 67.5 10.5t41.5 18.5t21 30t6 45v1014q0 36 -14.5 51t-47.5 15h-74v40l250 156h62v-966l270 272q18 17 28 36t3 35.5t-35.5 28.5t-87.5 16v50h470v-50q-43 -4 -77 -12t-64.5 -23t-60.5 -38t-64 -57l-140 -140l332 -414q28 -34 49.5 -55t41 -34t39.5 -19
t44 -10v-50h-496v50q52 4 79.5 16t37 29t3.5 37t-22 40l-234 286l-116 -116v-188q0 -27 5.5 -45t20.5 -30t41 -18.5t67 -10.5v-50h-446z" />
    <glyph glyph-name="l" unicode="l" horiz-adv-x="552" 
d="M52 0v50q41 4 67.5 10.5t41.5 18.5t21 30t6 45v1014q0 36 -14.5 51t-47.5 15h-74v40l250 156h62v-1276q0 -27 5.5 -45t20.5 -30t41 -18.5t67 -10.5v-50h-446z" />
    <glyph glyph-name="m" unicode="m" horiz-adv-x="1738" 
d="M646 0v50q41 4 67 10.5t41 18.5t20.5 30t5.5 45v508q0 44 -11 76t-31.5 52.5t-49.5 30t-64 9.5q-69 0 -135 -22.5t-125 -63.5v-590q0 -27 5.5 -45t20.5 -30t41 -18.5t67 -10.5v-50h-446v50q41 4 67.5 10.5t41.5 18.5t21 30t6 45v516q0 36 -14.5 51t-47.5 15h-74v40
l250 156h62v-100q29 18 65.5 36t77 32t83.5 23t84 9q31 0 66.5 -5.5t69.5 -19t64 -36.5t50 -59q33 23 75 45t87 38.5t91.5 26.5t88.5 10q45 0 95 -10.5t92 -40.5t69.5 -82.5t27.5 -136.5v-508q0 -27 6 -45t21 -30t41.5 -18.5t67.5 -10.5v-50h-446v50q40 4 66 10.5t41 18.5
t21 30t6 45v508q0 44 -11 76t-31.5 52.5t-49.5 30t-64 9.5q-72 0 -140 -24t-130 -66q5 -18 7.5 -37.5t2.5 -40.5v-508q0 -27 5.5 -45t20.5 -30t41 -18.5t67 -10.5v-50h-446z" />
    <glyph glyph-name="n" unicode="n" horiz-adv-x="1144" 
d="M646 0v50q41 4 67 10.5t41 18.5t20.5 30t5.5 45v508q0 44 -11 76t-31.5 52.5t-49.5 30t-64 9.5q-69 0 -135 -22.5t-125 -63.5v-590q0 -27 5.5 -45t20.5 -30t41 -18.5t67 -10.5v-50h-446v50q41 4 67.5 10.5t41.5 18.5t21 30t6 45v516q0 36 -14.5 51t-47.5 15h-74v40
l250 156h62v-100q29 18 65.5 36t77 32t83.5 23t84 9q44 0 94 -10.5t92 -40.5t70 -82.5t28 -136.5v-508q0 -27 5.5 -45t20.5 -30t41 -18.5t67 -10.5v-50h-446z" />
    <glyph glyph-name="o" unicode="o" horiz-adv-x="1082" 
d="M70 452q0 102 34 189.5t95.5 152t148 101.5t192.5 37t193 -37t149 -101.5t96 -152t34 -189.5q0 -103 -34 -191t-96 -152.5t-149 -101.5t-193 -37t-192.5 37t-148 101.5t-95.5 152.5t-34 191zM262 452q0 -87 15 -161t48 -128t86 -84.5t129 -30.5t129 30.5t86.5 84.5
t49 128t15.5 161t-15.5 160.5t-49 127.5t-86.5 84t-129 30t-129 -30t-86 -84t-48 -127.5t-15 -160.5z" />
    <glyph glyph-name="p" unicode="p" horiz-adv-x="1106" 
d="M42 -368v50q41 4 67.5 10.5t41.5 18t21 29.5t6 44v886q0 36 -14.5 51t-47.5 15h-80v40l256 156h62v-102q47 48 112.5 75t153.5 27q100 0 177.5 -37t130.5 -101.5t80.5 -152.5t27.5 -189q0 -102 -28 -190t-82 -153t-134 -102t-184 -37q-85 0 -147 24t-107 68v-278
q0 -26 5.5 -44t20.5 -29.5t41 -18t67 -10.5v-50h-446zM576 846q-74 0 -129 -29.5t-93 -80.5v-570q38 -51 93 -80.5t129 -29.5q75 0 126 29t82.5 81.5t45.5 125.5t14 160t-14 159.5t-45.5 124.5t-82.5 81t-126 29z" />
    <glyph glyph-name="q" unicode="q" horiz-adv-x="1088" 
d="M618 -368v50q40 4 66 10.5t41 18t21 29.5t6 44v290q-45 -50 -111 -77t-155 -27q-100 0 -177.5 37t-130.5 102t-80.5 153t-27.5 190q0 101 27.5 189t80.5 152.5t130.5 101.5t177.5 37q94 0 160.5 -29.5t113.5 -82.5l106 112h62v-1148q0 -26 6 -44t21 -29.5t41.5 -18
t67.5 -10.5v-50h-446zM530 56q74 0 129 29.5t93 80.5v570q-38 51 -93 80.5t-129 29.5q-75 0 -126.5 -29t-83 -81t-45 -124.5t-13.5 -159.5t13.5 -160t45 -125.5t83 -81.5t126.5 -29z" />
    <glyph glyph-name="r" unicode="r" horiz-adv-x="802" 
d="M784 810q0 -48 -27 -75t-71 -27q-32 0 -52.5 14.5t-37 31.5t-33 31.5t-41.5 14.5q-36 0 -79.5 -24.5t-78.5 -77.5v-544q0 -27 5.5 -45t20.5 -30t41 -18.5t67 -10.5v-50h-446v50q41 4 67.5 10.5t41.5 18.5t21 30t6 45v516q0 36 -14.5 51t-47.5 15h-74v40l250 156h62v-132
q26 31 58.5 56t67 41.5t70.5 25.5t70 9q41 0 70.5 -10t48 -27t27 -39t8.5 -46z" />
    <glyph glyph-name="s" unicode="s" horiz-adv-x="928" 
d="M240 726q0 -43 27.5 -70.5t72 -46t101.5 -32t117 -28.5t117 -35t101.5 -51.5t72 -79t27.5 -117.5q0 -68 -27.5 -122.5t-75.5 -93t-113.5 -59.5t-141.5 -21q-97 0 -181 27.5t-137 68.5l-24 -66h-52l-72 302l44 14q45 -71 92.5 -122t99 -83.5t108 -47.5t120.5 -15
q40 0 78 9.5t68 29t48 50t18 73.5q0 48 -27.5 78.5t-73 51t-103.5 34.5t-118 28.5t-118 33t-103.5 48.5t-73 74.5t-27.5 111.5q0 54 23.5 101.5t66.5 83.5t103 56.5t133 20.5q95 0 163 -22.5t113 -57.5l20 50h50l58 -258l-44 -16q-35 62 -75 105.5t-83.5 70.5t-91 39.5
t-98.5 12.5q-92 0 -137 -37t-45 -93z" />
    <glyph glyph-name="t" unicode="t" horiz-adv-x="638" 
d="M586 16q-35 -17 -84.5 -27.5t-97.5 -10.5q-50 0 -93 11t-74.5 38t-49 72t-17.5 113v608h-134v42q58 21 100 52t71 72.5t47.5 94t29.5 117.5h62v-296h240v-82h-240v-610q0 -72 27 -106t89 -34q61 0 124 24v-78z" />
    <glyph glyph-name="u" unicode="u" horiz-adv-x="1128" 
d="M628 776l250 156h62v-778q0 -27 5.5 -45t20.5 -30t41 -18.5t67 -10.5v-50q-77 0 -155 -7.5t-155 -22.5v98q-29 -18 -66 -35.5t-77.5 -31.5t-83.5 -22.5t-83 -8.5q-44 0 -94 10.5t-92 40.5t-70 82.5t-28 136.5v430q0 36 -14.5 51t-47.5 15h-72v40l250 156h60v-692
q0 -44 11.5 -76t32.5 -52.5t50 -30t64 -9.5q69 0 133.5 23.5t126.5 62.5v512q0 36 -14.5 51t-49.5 15h-72v40z" />
    <glyph glyph-name="v" unicode="v" horiz-adv-x="926" 
d="M398 0l-258 678q-17 45 -30.5 76.5t-30 52t-39.5 31t-58 14.5v50h440v-50q-53 -4 -80 -13.5t-36 -27.5t-3.5 -44t19.5 -63l182 -488l190 478q16 40 18 68t-10.5 47t-39.5 29t-70 14v50h352v-50q-29 -4 -51 -14.5t-40.5 -30.5t-35.5 -51.5t-35 -77.5l-270 -678h-114z" />
    <glyph glyph-name="w" unicode="w" horiz-adv-x="1524" 
d="M762 616l-240 -616h-118l-264 678q-17 45 -31 76.5t-30.5 52t-39 31t-57.5 14.5v50h442v-50q-53 -4 -81 -14.5t-37 -30.5t-1.5 -51.5t25.5 -77.5l176 -458l208 512q-14 30 -28 51.5t-31 36t-39 22.5t-50 10v50h454v-50q-53 -4 -81 -14t-36.5 -30t-0.5 -52t26 -78
l176 -462l180 462q18 46 21 77.5t-10.5 51.5t-43.5 30.5t-79 14.5v50h370v-50q-29 -4 -50.5 -14.5t-40 -30.5t-35.5 -51.5t-36 -77.5l-262 -678h-120z" />
    <glyph glyph-name="x" unicode="x" horiz-adv-x="1024" 
d="M472 382l-184 -238q-33 -42 -9 -65t101 -29v-50h-360v50q27 3 48.5 9t40 17t35.5 27.5t36 40.5l240 312l-222 302q-18 24 -32.5 41t-30.5 28t-35.5 17t-47.5 8v50h440v-50q-78 -6 -95 -29.5t15 -64.5l138 -184l142 184q14 18 17.5 34t-6.5 28t-34.5 20.5t-66.5 11.5v50
h370v-50q-31 -3 -54.5 -9.5t-43 -17.5t-37 -27.5t-35.5 -39.5l-200 -258l264 -356q19 -24 34.5 -40.5t31.5 -27.5t33 -17t39 -9v-50h-430v50q46 2 70 9t31.5 18.5t0 28t-23.5 38.5z" />
    <glyph glyph-name="y" unicode="y" horiz-adv-x="926" 
d="M440 -176q-45 -113 -115.5 -167.5t-164.5 -54.5q-40 0 -75 8.5t-61.5 25t-42 40t-15.5 52.5q0 38 27 66t71 28q32 0 52.5 -15.5t37.5 -33.5t34.5 -33.5t43.5 -15.5q41 0 73 38t55 98l46 118l-266 700q-17 46 -31 77.5t-30.5 51.5t-39 30.5t-57.5 14.5v50h440v-50
q-53 -4 -80 -14t-35 -30t-1 -52t24 -78l174 -460l184 460q18 46 21 77.5t-9 51.5t-39.5 30.5t-70.5 14.5v50h354v-50q-29 -4 -50.5 -14.5t-40 -30.5t-35.5 -51.5t-36 -77.5z" />
    <glyph glyph-name="z" unicode="z" horiz-adv-x="944" 
d="M610 824h-124q-71 0 -125 -8.5t-98 -30t-81 -58t-72 -91.5l-46 20l84 246h696v-50l-558 -774h170q78 0 137 17t106.5 48.5t86 75.5t76.5 97l40 -22l-128 -294h-722v50z" />
    <glyph glyph-name="braceleft" unicode="{" horiz-adv-x="618" 
d="M574 -424q-173 0 -259.5 103.5t-86.5 294.5v328q0 45 -8 80.5t-28.5 59.5t-56.5 37t-91 13v64q55 0 91 12.5t56.5 36.5t28.5 59t8 80v328q0 95 21.5 169t65 125t108.5 77.5t151 26.5v-54q-85 0 -132.5 -57t-47.5 -169v-330q0 -83 -17 -141.5t-47 -98.5t-71 -63t-89 -33
q48 -11 89 -34.5t71 -63.5t47 -99t17 -141v-330q0 -112 47.5 -169t132.5 -57v-54z" />
    <glyph glyph-name="bar" unicode="|" horiz-adv-x="618" 
d="M266 1460h84v-1888h-84v1888z" />
    <glyph glyph-name="braceright" unicode="}" horiz-adv-x="618" 
d="M44 -370q86 0 133 57t47 169v330q0 82 17 141t47 99t71 63.5t89 34.5q-48 10 -89 33t-71 63t-47 98.5t-17 141.5v330q0 112 -47 169t-133 57v54q87 0 152 -26.5t108.5 -77.5t65.5 -125t22 -169v-328q0 -45 7.5 -80t28 -59t55.5 -36.5t91 -12.5v-64q-56 0 -91 -13
t-55.5 -37t-28 -59.5t-7.5 -80.5v-328q0 -191 -87 -294.5t-261 -103.5v54z" />
    <glyph glyph-name="asciitilde" unicode="~" horiz-adv-x="1032" 
d="M926 828q0 -78 -17.5 -133t-49.5 -89.5t-76.5 -50t-98.5 -15.5q-47 0 -86 14t-72 35t-62 46t-56.5 46t-55 35t-56.5 14q-27 0 -48.5 -8t-36.5 -26t-23 -48t-8 -74h-76q0 78 17.5 132.5t49.5 88.5t76.5 49.5t98.5 15.5q47 0 86 -14t73 -35t63.5 -45t57.5 -45t55.5 -35
t56.5 -14q28 0 50 8t37 26t23 48t8 74h70z" />
    <glyph glyph-name="uni00A0" unicode="&#xa0;" horiz-adv-x="502" 
 />
    <glyph glyph-name="exclamdown" unicode="&#xa1;" horiz-adv-x="480" 
d="M274.025 530.045q0.999023 -128.983 7.99805 -225.972q7 -96.9883 16.998 -171.479q9.99902 -74.4902 21.498 -131.483q11.498 -56.9932 20.9971 -106.987t15.998 -98.4883t6.49902 -105.486q0 -60.9932 -9.99805 -102.488q-9.99902 -41.4941 -26.9971 -66.9912
t-39.9951 -36.9961q-22.9971 -11.498 -48.9941 -11.498t-48.9941 11.498q-22.9971 11.499 -39.9951 36.9961t-26.9971 66.9912q-9.99805 41.4951 -9.99805 102.488q0 56.9922 6.49902 105.486t15.998 98.4883t20.9971 106.987q11.499 56.9932 21.498 131.483
q9.99805 74.4912 16.998 171.479q6.99902 96.9883 7.99805 225.972h71.9922zM364.014 796.013q0 -25.9971 -8.99902 -48.9941t-25.4961 -39.4951q-16.498 -16.498 -39.4951 -25.9961q-22.998 -9.49902 -51.9941 -9.49902q-27.9961 0 -50.9941 9.49902
q-22.9971 9.49805 -39.4951 25.9961t-25.9961 39.4951q-9.49902 22.9971 -9.49902 48.9941t9.49902 48.9941q9.49805 22.9971 25.9961 39.9951t39.4951 26.9971q22.998 9.99902 50.9941 9.99902q28.9961 0 51.9941 -9.99902q22.9971 -9.99902 39.4951 -26.9971
q16.4971 -16.998 25.4961 -39.9951t8.99902 -48.9941z" />
    <glyph glyph-name="cent" unicode="&#xa2;" 
d="M902 972q0 -45 -27 -68.5t-63 -23.5q-33 0 -57 22.5t-35 73.5q-9 56 -40 92.5t-90 47.5v-796q52 0 95.5 16.5t79.5 46.5t65 73.5t52 97.5l72 -38q-26 -61 -59.5 -111.5t-77.5 -87t-100.5 -58t-126.5 -23.5v-296h-86v300q-96 11 -170 52t-125 104.5t-77 145.5t-26 176
q0 96 29 179.5t81.5 147t125.5 103.5t162 48v264h86v-264q70 -5 128 -26t98.5 -52t63 -69t22.5 -77zM290 718q0 -74 13 -138t40 -114.5t67 -85t94 -50.5v786q-58 -10 -98.5 -43.5t-66 -86t-37.5 -121t-12 -147.5z" />
    <glyph glyph-name="sterling" unicode="&#xa3;" 
d="M48 736h228q-29 65 -47.5 139t-18.5 169q0 79 30 149t87 122.5t140.5 83.5t190.5 31q93 0 162.5 -26.5t116 -68.5t70 -94.5t23.5 -104.5q0 -44 -12 -79t-33 -60.5t-50 -39t-63 -13.5q-29 0 -50.5 9.5t-36 24.5t-22 35t-7.5 41q0 53 34 82t82 32q14 0 22 4.5t8 15.5
q0 33 -15.5 61t-44 49t-69 32.5t-89.5 11.5q-71 0 -119.5 -24.5t-78.5 -64.5t-43 -90t-13 -101q0 -49 4.5 -92.5t12 -83.5t18 -77t21.5 -73h298v-80h-274q19 -66 34.5 -137t15.5 -155q0 -35 -4 -67.5t-12 -62.5q34 -18 68 -35.5t68.5 -31.5t71.5 -22.5t78 -8.5q80 0 132 37
t66 117h84q-8 -74 -32 -133t-63 -100.5t-93 -64t-124 -22.5q-53 0 -98 11.5t-83 30t-70.5 42t-60.5 48.5q-42 -63 -102 -97.5t-128 -34.5q-37 0 -72.5 11t-64 33.5t-46 55t-17.5 76.5q0 40 17 71.5t46.5 54t68 34.5t82.5 12q42 0 79.5 -7t72.5 -21q-2 56 -11.5 105t-24.5 93
t-34.5 85.5t-39.5 82.5h-266v80zM258 54q28 0 51.5 9.5t42 26t32 38t22.5 46.5q-33 26 -65.5 43t-68.5 17q-51 0 -83.5 -23.5t-32.5 -64.5t27 -66.5t75 -25.5z" />
    <glyph glyph-name="currency" unicode="&#xa4;" 
d="M278 700q0 -62 23.5 -117t64 -95.5t95.5 -64t117 -23.5t117 23.5t96 64t65 95.5t24 117t-24 117t-65 96t-96 65t-117 24t-117 -24t-95.5 -65t-64 -96t-23.5 -117zM158 700q0 71 21 134.5t59 111.5l-194 196l92 92l194 -194q51 38 115 59t133 21t132.5 -21t113.5 -59
l196 196l94 -94l-196 -194q38 -51 59 -115t21 -133t-21 -133t-59 -115l196 -194l-94 -92l-196 194q-48 -38 -111.5 -59t-134.5 -21t-134.5 21t-113.5 59l-194 -194l-92 94l194 192q-38 50 -59 113.5t-21 134.5z" />
    <glyph glyph-name="yen" unicode="&#xa5;" 
d="M72 616h384l-242 542q-21 46 -37.5 80.5t-35.5 58t-43.5 36.5t-61.5 17v50h452v-50q-53 -4 -75.5 -20t-24.5 -43t12 -65t34 -84l200 -442l188 448q19 47 31 84t8.5 62.5t-27.5 40.5t-76 19v50h364v-50q-42 -4 -71 -17t-50 -36.5t-38 -58.5t-35 -82l-224 -540h380v-78
h-402v-186h402v-80h-402v-48q0 -57 8 -90t29 -50.5t59 -23.5t98 -10v-50h-586v50q60 4 98 10t59 23.5t29 50.5t8 90v48h-412v80h412v186h-412v78z" />
    <glyph glyph-name="brokenbar" unicode="&#xa6;" horiz-adv-x="618" 
d="M266 420h84v-848h-84v848zM266 1460h84v-848h-84v848z" />
    <glyph glyph-name="section" unicode="&#xa7;" horiz-adv-x="950" 
d="M388 1200q0 -62 20.5 -113t54 -96.5t76 -89t87.5 -91.5t87.5 -103t76 -124t54 -154.5t20.5 -194.5q0 -123 -32.5 -237t-95 -202t-154.5 -140.5t-210 -52.5q-35 0 -63.5 8t-49 22t-32 33.5t-11.5 42.5q0 42 26 69t68 27q34 0 52 -15t32 -33t29.5 -33t44.5 -15q44 0 70 35
t26 89q0 63 -20.5 114t-54 96.5t-76 89t-87.5 91t-87.5 103t-76 124t-54 154t-20.5 194.5q0 123 32.5 237t95 202t153.5 140.5t209 52.5q35 0 64 -8t50 -21.5t32.5 -33t11.5 -41.5q0 -44 -27 -71t-69 -27q-34 0 -52 15t-31.5 33t-29.5 33t-45 15q-42 0 -68 -35t-26 -89z
M258 1140q-12 -28 -23 -56.5t-20 -63t-14 -77t-5 -97.5q0 -78 21.5 -145t56 -127t79 -114.5t91 -107t91.5 -105t79.5 -108t56 -116.5t21.5 -131q12 28 23.5 56.5t20.5 63t14.5 76.5t5.5 98q0 78 -21.5 145.5t-56.5 127.5t-79.5 114.5t-91.5 107t-91.5 105t-79.5 108
t-56.5 116.5t-21.5 130z" />
    <glyph glyph-name="dieresis" unicode="&#xa8;" horiz-adv-x="996" 
d="M224 1232q0 42 29 73t77 31q24 0 44 -8.5t34 -22.5t22 -33t8 -40q0 -20 -8 -38.5t-22 -32.5t-34 -22.5t-44 -8.5t-43.5 8.5t-33.5 22.5t-21.5 32.5t-7.5 38.5zM556 1232q0 21 7.5 40t21.5 33t34 22.5t45 8.5q48 0 77 -31t29 -73q0 -20 -7.5 -38.5t-21.5 -32.5
t-33.5 -22.5t-43.5 -8.5q-25 0 -45 8.5t-34 22.5t-21.5 32.5t-7.5 38.5z" />
    <glyph glyph-name="copyright" unicode="&#xa9;" horiz-adv-x="1582" 
d="M62 700q0 100 26 193.5t74 174.5t114.5 147.5t147.5 114.5t174 74t194 26q100 0 193.5 -26t174.5 -74t147.5 -114.5t114.5 -147.5t74 -174.5t26 -193.5q0 -101 -26 -194t-74 -174t-114.5 -147.5t-147.5 -114.5t-174 -74t-194 -26t-194 26t-174 74t-147.5 114.5
t-114.5 147.5t-74 174t-26 194zM128 700q0 -92 24 -176.5t67 -158t103.5 -134t134.5 -103.5t158.5 -66.5t176.5 -23.5q91 0 175.5 23.5t158 66.5t134 103.5t103.5 134t67 158.5t24 176t-24 176t-67 159t-103.5 134.5t-134 103.5t-158 67t-175.5 24q-92 0 -176.5 -24
t-158.5 -67t-134.5 -103.5t-103.5 -134.5t-67 -159t-24 -176zM1130 886l-38 -12q-48 92 -118.5 147t-161.5 55q-65 0 -111 -28t-75 -77.5t-42.5 -117.5t-13.5 -149t13.5 -149.5t42.5 -118t75 -77t111 -27.5q49 0 93 15.5t79 42.5t60 63.5t38 78.5l68 -22q-21 -56 -52 -101.5
t-74.5 -77t-99.5 -48.5t-126 -17q-92 0 -167.5 32t-130 89.5t-84.5 138t-30 178.5q0 97 30 178t84.5 138.5t130 89.5t167.5 32q68 0 117 -15t85 -41l16 38h48z" />
    <glyph glyph-name="ordfeminine" unicode="&#xaa;" horiz-adv-x="824" 
d="M652 538q-51 0 -87 20.5t-47 73.5q-26 -18 -55.5 -35.5t-62.5 -31.5t-68 -22.5t-72 -8.5q-95 0 -151.5 44.5t-56.5 121.5q0 62 37 106.5t100.5 76t147.5 52t179 35.5v98q0 39 -5 66t-17 44t-32.5 24.5t-51.5 7.5q-60 0 -94.5 -25.5t-51.5 -82.5q-12 -41 -38 -59.5
t-56 -18.5t-49 19t-19 57q0 34 23.5 66t66.5 56.5t102.5 39t131.5 14.5q52 0 98.5 -10.5t81.5 -35.5t55.5 -67t20.5 -105v-368q0 -72 48 -72q11 0 24 3.5t28 12.5v-62q-26 -17 -57 -25.5t-73 -8.5zM330 628q50 0 96 21t90 51v206q-67 -10 -121 -23.5t-92.5 -34t-59.5 -49.5
t-21 -69q0 -50 30.5 -76t77.5 -26z" />
    <glyph glyph-name="guillemotleft" unicode="&#xab;" horiz-adv-x="1018" 
d="M486 32l-342 380q-9 11 -15.5 25t-6.5 29q0 31 22 56l342 380l40 -28l-194 -408l194 -406zM856 32l-342 380q-9 11 -15.5 25t-6.5 29q0 31 22 56l342 380l40 -28l-194 -408l194 -406z" />
    <glyph glyph-name="logicalnot" unicode="&#xac;" horiz-adv-x="1104" 
d="M20 950h1064v-486h-100v386h-964v100z" />
    <glyph glyph-name="uni00AD" unicode="&#xad;" horiz-adv-x="486" 
d="M20 524h446v-116h-446v116z" />
    <glyph glyph-name="registered" unicode="&#xae;" horiz-adv-x="898" 
d="M56 1038q0 81 31 152.5t84 124.5t124.5 84t152.5 31t152.5 -31t124.5 -84t84 -124.5t31 -152.5q0 -80 -31 -151t-84 -124t-124.5 -84t-152.5 -31t-152.5 31t-124.5 84t-84 124t-31 151zM120 1038q0 -68 25.5 -127.5t70 -103.5t104.5 -69.5t128 -25.5t128 25.5t104.5 69.5
t70 103.5t25.5 127.5q0 69 -25.5 129t-70 104t-104.5 69.5t-128 25.5t-128 -25.5t-104.5 -69.5t-70 -104t-25.5 -129zM646 1142q0 -45 -27 -72t-77 -36l84 -124q12 -17 24 -25t36 -11v-34h-132l-122 188h-34v-108q0 -15 2 -23.5t8 -13t16 -6.5t26 -3v-34h-208v34
q16 1 25.5 3t15 6.5t7.5 13t2 23.5v254q0 14 -1.5 22t-7 12t-15.5 5t-26 3v34h238q78 0 122 -24t44 -84zM538 1142q0 33 -18.5 46.5t-59.5 13.5h-44q-8 0 -13 -5t-5 -13v-106h62q41 0 59.5 16t18.5 48z" />
    <glyph glyph-name="macron" unicode="&#xaf;" horiz-adv-x="1032" 
d="M264 1262h502v-104h-502v104z" />
    <glyph glyph-name="degree" unicode="&#xb0;" horiz-adv-x="586" 
d="M62 1198q0 48 18 90t49.5 73.5t74 50t90.5 18.5t90 -18.5t73.5 -50t50 -73.5t18.5 -90q0 -47 -18.5 -89t-50 -73.5t-73.5 -49.5t-90 -18t-90.5 18t-74 49.5t-49.5 73.5t-18 89zM132 1198q0 -34 12.5 -63t34.5 -50t51.5 -33t63.5 -12t63 12t50.5 33t34 50t12.5 63
t-12.5 63t-34 50.5t-50.5 34t-63 12.5t-63.5 -12.5t-51.5 -34t-34.5 -50.5t-12.5 -63z" />
    <glyph glyph-name="plusminus" unicode="&#xb1;" horiz-adv-x="1104" 
d="M20 752h480v480h100v-480h484v-100h-484v-462h-100v462h-480v100zM20 90h1064v-90h-1064v90z" />
    <glyph glyph-name="uni00B2" unicode="&#xb2;" horiz-adv-x="762" 
d="M90 1144q0 64 21.5 115t59 86.5t89.5 54t114 18.5q61 0 111.5 -18t86.5 -50t56 -77t20 -99q0 -70 -31 -134t-84 -123.5t-124 -115t-151 -107.5h296q17 0 28.5 2.5t20 11.5t15 28t14.5 52h44l-30 -254h-46q0 8 -4.5 17t-19.5 9h-476v72q72 58 142 120t125 129.5t89 140
t34 152.5q0 83 -37 129.5t-115 46.5q-37 0 -69.5 -12t-56.5 -37.5t-38 -64.5t-14 -92h-70z" />
    <glyph glyph-name="uni00B3" unicode="&#xb3;" horiz-adv-x="762" 
d="M640 1232q0 -66 -41.5 -115.5t-116.5 -70.5q43 -7 81 -26.5t65.5 -49t43.5 -66.5t16 -78q0 -58 -22.5 -109.5t-66 -90.5t-108 -61.5t-147.5 -22.5q-47 0 -94.5 7.5t-85.5 23.5t-62 40.5t-24 58.5q0 33 20.5 54.5t49.5 21.5t47.5 -10.5t31.5 -26t23 -33.5t23 -33.5
t31.5 -26t47.5 -10.5q49 0 82 14t53.5 39t29.5 60t9 77q0 39 -13 74t-39.5 61t-66.5 41.5t-93 15.5h-22v66h28q81 0 120.5 44t39.5 110q0 28 -8.5 53.5t-25 45t-42.5 30.5t-60 11q-32 0 -60.5 -10t-51 -30.5t-37.5 -51.5t-19 -72h-68q9 109 78.5 170.5t191.5 61.5
q65 0 114 -15.5t82 -41t49.5 -59t16.5 -70.5z" />
    <glyph glyph-name="acute" unicode="&#xb4;" horiz-adv-x="1032" 
d="M634 1308q11 15 22 23.5t34 8.5h120q15 0 23.5 -8t8.5 -22t-9.5 -25.5t-32.5 -32.5l-268 -234h-80z" />
    <glyph glyph-name="mu" unicode="&#xb5;" horiz-adv-x="1080" 
d="M462 -30q-51 0 -104 15.5t-94 54.5q18 -50 40 -94t41.5 -82.5t33 -72t13.5 -61.5q0 -29 -9.5 -53t-25.5 -40.5t-37.5 -25.5t-45.5 -9q-25 0 -46.5 9t-38 26t-26 41t-9.5 54v1170h178v-662q0 -86 42 -127t114 -41q69 0 135.5 23.5t126.5 62.5q-2 14 -2 28.5v29.5v686h178
v-720q0 -57 15.5 -83.5t48.5 -26.5q15 0 33 5t41 17v-72q-32 -21 -67 -32.5t-71 -11.5q-62 0 -104 22.5t-60 79.5q-26 -21 -60.5 -41t-73.5 -35t-81 -24.5t-85 -9.5z" />
    <glyph glyph-name="paragraph" unicode="&#xb6;" horiz-adv-x="796" 
d="M62 996q0 84 31.5 157.5t85.5 128.5t127 86.5t156 31.5h292v-50q-58 -4 -95.5 -9.5t-59.5 -21t-30.5 -45t-8.5 -80.5v-1050q0 -128 -33.5 -228.5t-94.5 -169.5t-146.5 -105.5t-189.5 -36.5q-68 0 -125 14.5t-98.5 39.5t-65 57.5t-23.5 68.5q0 22 8.5 40.5t22 32
t31.5 21.5t38 8q31 0 52.5 -13t39 -33t33 -43t36 -43t48 -33t67.5 -13q58 0 112.5 26t96.5 80t67.5 136t25.5 194v450q-83 0 -156 31.5t-127 85.5t-85.5 127.5t-31.5 157.5z" />
    <glyph glyph-name="periodcentered" unicode="&#xb7;" horiz-adv-x="480" 
d="M114 464q0 26 9 49t25.5 39.5t39.5 26t52 9.5q28 0 51 -9.5t39.5 -26t26 -39.5t9.5 -49t-9.5 -49t-26 -40t-39.5 -27t-51 -10q-29 0 -52 10t-39.5 27t-25.5 40t-9 49z" />
    <glyph glyph-name="cedilla" unicode="&#xb8;" horiz-adv-x="1032" 
d="M626 -120q69 0 114.5 -33t45.5 -99q0 -34 -17.5 -67t-50.5 -59.5t-81 -43t-109 -16.5q-48 0 -87 9.5t-67 25.5t-43 36.5t-15 42.5q0 26 16 44t42 18q23 0 36 -8.5t21.5 -20.5t15 -27t17 -27t28 -20.5t48.5 -8.5q59 0 89.5 27.5t30.5 68.5q0 30 -23 50t-59 20
q-26 0 -45.5 -6.5t-36.5 -21.5l-48 20l90 216h86l-56 -130q12 5 24.5 7.5t33.5 2.5z" />
    <glyph glyph-name="uni00B9" unicode="&#xb9;" horiz-adv-x="762" 
d="M194 560v42q35 2 57 5.5t34 12.5t16.5 26.5t4.5 47.5v534q0 20 -7 29t-27 9h-78v36l208 116h54v-724q0 -30 4.5 -47.5t17 -26.5t34 -12.5t56.5 -5.5v-42h-374z" />
    <glyph glyph-name="ordmasculine" unicode="&#xba;" horiz-adv-x="844" 
d="M40 904q0 78 27 146t76.5 118t120 79t158.5 29t158.5 -29t120 -79t76.5 -118t27 -146t-27 -146t-76.5 -118t-120 -79t-158.5 -29t-158.5 29t-120 79t-76.5 118t-27 146zM216 904q0 -66 10.5 -122t34.5 -96.5t63.5 -63t97.5 -22.5t97 22.5t63 63t34 96.5t10 122
q0 65 -10 120.5t-34 96t-63 63t-97 22.5t-97.5 -22.5t-63.5 -63t-34.5 -96t-10.5 -120.5z" />
    <glyph glyph-name="guillemotright" unicode="&#xbb;" horiz-adv-x="1030" 
d="M160.06 32l341.958 380q8.99902 11 15.498 25t6.49902 29q0 31 -21.9971 56l-341.958 380l-39.9951 -28l193.977 -408l-193.977 -406zM532.06 32l341.958 380q8.99902 11 15.498 25t6.49902 29q0 31 -21.9971 56l-341.958 380l-39.9951 -28l193.977 -408l-193.977 -406z
" />
    <glyph glyph-name="onequarter" unicode="&#xbc;" horiz-adv-x="1736" 
d="M1380 0v210h-346v50l394 598h100v-582h150v-66h-150v-210h-148zM1126 276h254v384zM194 560v42q35 2 57 5.5t34 12.5t16.5 26.5t4.5 47.5v534q0 20 -7 29t-27 9h-78v36l208 116h54v-724q0 -30 4.5 -47.5t17 -26.5t34 -12.5t56.5 -5.5v-42h-374zM1280 1400h86l-912 -1400
h-86z" />
    <glyph glyph-name="onehalf" unicode="&#xbd;" horiz-adv-x="1736" 
d="M1064 584q0 64 21.5 115t59 86.5t89.5 54t114 18.5q61 0 111.5 -18t86.5 -50t56 -77t20 -99q0 -70 -31 -134t-84 -123.5t-124 -115t-151 -107.5h296q17 0 28.5 2.5t20 11.5t15 28t14.5 52h44l-30 -254h-46q0 8 -4.5 17t-19.5 9h-476v72q72 58 142 120t125 129.5t89 140
t34 152.5q0 83 -37 129.5t-115 46.5q-37 0 -69.5 -12t-56.5 -37.5t-38 -64.5t-14 -92h-70zM194 560v42q35 2 57 5.5t34 12.5t16.5 26.5t4.5 47.5v534q0 20 -7 29t-27 9h-78v36l208 116h54v-724q0 -30 4.5 -47.5t17 -26.5t34 -12.5t56.5 -5.5v-42h-374zM1280 1400h86
l-912 -1400h-86z" />
    <glyph glyph-name="threequarters" unicode="&#xbe;" horiz-adv-x="1736" 
d="M1380 0v210h-346v50l394 598h100v-582h150v-66h-150v-210h-148zM1126 276h254v384zM640 1232q0 -66 -41.5 -115.5t-116.5 -70.5q43 -7 81 -26.5t65.5 -49t43.5 -66.5t16 -78q0 -58 -22.5 -109.5t-66 -90.5t-108 -61.5t-147.5 -22.5q-47 0 -94.5 7.5t-85.5 23.5t-62 40.5
t-24 58.5q0 33 20.5 54.5t49.5 21.5t47.5 -10.5t31.5 -26t23 -33.5t23 -33.5t31.5 -26t47.5 -10.5q49 0 82 14t53.5 39t29.5 60t9 77q0 39 -13 74t-39.5 61t-66.5 41.5t-93 15.5h-22v66h28q81 0 120.5 44t39.5 110q0 28 -8.5 53.5t-25 45t-42.5 30.5t-60 11q-32 0 -60.5 -10
t-51 -30.5t-37.5 -51.5t-19 -72h-68q9 109 78.5 170.5t191.5 61.5q65 0 114 -15.5t82 -41t49.5 -59t16.5 -70.5zM1280 1400h86l-912 -1400h-86z" />
    <glyph glyph-name="questiondown" unicode="&#xbf;" horiz-adv-x="938" 
d="M510.052 530.045h83.9902l1.99902 -377.953q-81.9893 0 -151.98 -13.499q-69.9922 -13.498 -120.485 -46.4941q-50.4941 -32.9961 -78.9912 -88.9893q-28.4961 -55.9932 -28.4961 -140.982q0 -56.9932 20.9971 -109.486q20.998 -52.4941 59.4932 -92.9893
t92.4883 -64.9912q53.9941 -24.498 120.985 -24.498q40.9951 0 65.9922 13.999q24.9971 13.998 42.9951 34.4951q17.9971 20.498 31.4961 44.4951q13.498 23.9971 29.9961 44.4941q16.498 20.498 39.4951 34.4961t59.9932 13.998q38.9951 0 66.4912 -28.4961
q27.4971 -28.4971 27.4971 -75.4912q0 -45.9941 -23.4971 -79.9902t-62.9922 -56.4932t-91.9893 -32.9951q-52.4932 -10.499 -111.486 -10.499q-86.9893 0 -159.98 18.4971q-72.9912 18.498 -131.484 50.9941q-58.4922 32.4961 -101.987 76.9902
q-43.4941 44.4951 -72.4912 94.9883q-28.9961 50.4941 -43.4941 105.987t-14.498 110.487q0 101.987 32.9951 176.978q32.9961 74.9912 92.4893 124.485q59.4922 49.4941 141.482 74.4902q81.9902 24.9971 178.979 25.9971zM678.031 796.013q0 -25.9971 -9.49902 -48.9941
q-9.49805 -22.9971 -25.9961 -39.4951t-39.9951 -25.9961q-23.4971 -9.49902 -52.4941 -9.49902q-27.9961 0 -50.9932 9.49902q-22.9971 9.49805 -39.4951 25.9961t-25.9971 39.4951t-9.49902 48.9941t9.49902 48.9941t25.9971 39.9951t39.4951 26.9971t50.9932 9.99902
q28.9971 0 52.4941 -9.99902t39.9951 -26.9971t25.9961 -39.9951q9.49902 -22.9971 9.49902 -48.9941z" />
    <glyph glyph-name="Agrave" unicode="&#xc0;" horiz-adv-x="1330" 
d="M730 1400l458 -1204q13 -35 27.5 -61t34 -43.5t45.5 -27.5t61 -14v-50h-520v50q56 4 91.5 12t53 22.5t18.5 36t-11 53.5l-100 256h-544l-96 -256q-11 -29 -7.5 -50.5t23.5 -36.5t58 -24t96 -13v-50h-444v50q75 8 116 40.5t64 95.5l462 1214h114zM378 518h476l-240 626z
M738 1486h-82l-266 234q-24 21 -33 32.5t-9 25.5t7.5 22t24.5 8h118q23 0 35 -8.5t21 -23.5z" />
    <glyph glyph-name="Aacute" unicode="&#xc1;" horiz-adv-x="1330" 
d="M730 1400l458 -1204q13 -35 27.5 -61t34 -43.5t45.5 -27.5t61 -14v-50h-520v50q56 4 91.5 12t53 22.5t18.5 36t-11 53.5l-100 256h-544l-96 -256q-11 -29 -7.5 -50.5t23.5 -36.5t58 -24t96 -13v-50h-444v50q75 8 116 40.5t64 95.5l462 1214h114zM378 518h476l-240 626z
M794 1776q11 15 22 23.5t34 8.5h120q15 0 23.5 -8t8.5 -22t-9.5 -25.5t-32.5 -32.5l-268 -234h-80z" />
    <glyph glyph-name="Acircumflex" unicode="&#xc2;" horiz-adv-x="1330" 
d="M730 1400l458 -1204q13 -35 27.5 -61t34 -43.5t45.5 -27.5t61 -14v-50h-520v50q56 4 91.5 12t53 22.5t18.5 36t-11 53.5l-100 256h-544l-96 -256q-11 -29 -7.5 -50.5t23.5 -36.5t58 -24t96 -13v-50h-444v50q75 8 116 40.5t64 95.5l462 1214h114zM378 518h476l-240 626z
M566 1778q12 18 26.5 27t35.5 9h86q21 0 35 -9t25 -27l200 -294h-82l-222 212l-222 -212h-82z" />
    <glyph glyph-name="Atilde" unicode="&#xc3;" horiz-adv-x="1330" 
d="M730 1400l458 -1204q13 -35 27.5 -61t34 -43.5t45.5 -27.5t61 -14v-50h-520v50q56 4 91.5 12t53 22.5t18.5 36t-11 53.5l-100 256h-544l-96 -256q-11 -29 -7.5 -50.5t23.5 -36.5t58 -24t96 -13v-50h-444v50q75 8 116 40.5t64 95.5l462 1214h114zM378 518h476l-240 626z
M936 1784q-4 -53 -18 -90.5t-35.5 -62t-50 -36t-60.5 -11.5q-36 0 -67.5 16.5t-60.5 36.5t-56 36.5t-54 16.5q-24 0 -46 -20t-30 -68h-64q4 52 18 90t35.5 62.5t50 36t60.5 11.5q36 0 68 -16.5t61 -36.5t56.5 -36.5t54.5 -16.5q26 0 48 20t30 68h60z" />
    <glyph glyph-name="Adieresis" unicode="&#xc4;" horiz-adv-x="1330" 
d="M730 1400l458 -1204q13 -35 27.5 -61t34 -43.5t45.5 -27.5t61 -14v-50h-520v50q56 4 91.5 12t53 22.5t18.5 36t-11 53.5l-100 256h-544l-96 -256q-11 -29 -7.5 -50.5t23.5 -36.5t58 -24t96 -13v-50h-444v50q75 8 116 40.5t64 95.5l462 1214h114zM378 518h476l-240 626z
M392 1700q0 42 29 73t77 31q24 0 44 -8.5t34 -22.5t22 -33t8 -40q0 -20 -8 -38.5t-22 -32.5t-34 -22.5t-44 -8.5t-43.5 8.5t-33.5 22.5t-21.5 32.5t-7.5 38.5zM724 1700q0 21 7.5 40t21.5 33t34 22.5t45 8.5q48 0 77 -31t29 -73q0 -20 -7.5 -38.5t-21.5 -32.5t-33.5 -22.5
t-43.5 -8.5q-25 0 -45 8.5t-34 22.5t-21.5 32.5t-7.5 38.5z" />
    <glyph glyph-name="Aring" unicode="&#xc5;" horiz-adv-x="1330" 
d="M730 1400l458 -1204q13 -35 27.5 -61t34 -43.5t45.5 -27.5t61 -14v-50h-520v50q56 4 91.5 12t53 22.5t18.5 36t-11 53.5l-100 256h-544l-96 -256q-11 -29 -7.5 -50.5t23.5 -36.5t58 -24t96 -13v-50h-444v50q75 8 116 40.5t64 95.5l462 1214h114zM378 518h476l-240 626z
M464 1648q0 41 15.5 77.5t42.5 63.5t63 43t77 16q42 0 79 -16t64 -43t43 -63.5t16 -77.5q0 -40 -16 -76t-43 -63t-64 -43t-79 -16q-41 0 -77 16t-63 43t-42.5 63t-15.5 76zM542 1648q0 -26 9 -49t25.5 -39.5t38 -26t47.5 -9.5t49 9.5t40 26t27 39.5t10 49t-10 49t-27 39.5
t-40 26t-49 9.5t-47.5 -9.5t-38 -26t-25.5 -39.5t-9 -49z" />
    <glyph glyph-name="AE" unicode="&#xc6;" horiz-adv-x="2130" 
d="M1472 90q114 0 202 22t158.5 62.5t128.5 96t113 123.5l40 -26l-196 -368h-1104v50q60 4 98 10t59 23.5t29 50.5t8 90v210h-554l-150 -218q-26 -37 -28 -66t15.5 -50t52.5 -33.5t82 -16.5v-50h-458v50q110 3 230 174l756 1088q-30 21 -77.5 27t-112.5 11v50h1156l134 -326
l-42 -22q-47 64 -99 112t-114.5 80.5t-138.5 49t-172 16.5h-222q-29 0 -44.5 -15.5t-15.5 -44.5v-474h324q55 0 90 12.5t55 36.5t28.5 60.5t12.5 84.5h52v-478h-52q-4 48 -12.5 84.5t-28.5 60.5t-55 36.5t-90 12.5h-324v-536q0 -29 15.5 -44.5t44.5 -15.5h206zM1008 1176
q0 14 -1 25.5t-3 22.5l-486 -700h490v652z" />
    <glyph glyph-name="Ccedilla" unicode="&#xc7;" horiz-adv-x="1400" 
d="M816 -120q69 0 114.5 -33t45.5 -99q0 -34 -17.5 -67t-50.5 -59.5t-81 -43t-109 -16.5q-48 0 -87 9.5t-67 25.5t-43 36.5t-15 42.5q0 26 16 44t42 18q23 0 36 -8.5t21.5 -20.5t15 -27t17 -27t28 -20.5t48.5 -8.5q59 0 89.5 27.5t30.5 68.5q0 30 -23 50t-59 20
q-26 0 -45.5 -6.5t-36.5 -21.5l-48 20l78 188q-140 7 -255.5 64.5t-198 154t-128.5 226.5t-46 283q0 158 49 292t137.5 231.5t211.5 152t270 54.5q116 0 205 -28t149 -72l30 70h58l124 -390l-46 -16q-46 83 -100.5 148t-117.5 110t-135.5 68.5t-154.5 23.5q-119 0 -206 -48
t-143.5 -133.5t-83.5 -204t-27 -258.5t27 -258t83 -203.5t143 -133t207 -47.5q82 0 158.5 22t140.5 64t111.5 103.5t71.5 140.5l90 -30q-32 -87 -81 -156t-116 -118.5t-152 -78t-189 -33.5l-44 -102q12 5 24.5 7.5t33.5 2.5z" />
    <glyph glyph-name="Egrave" unicode="&#xc8;" horiz-adv-x="1376" 
d="M720 90q113 0 200.5 22t158 62.5t128.5 96t113 123.5l42 -26l-196 -368h-1106v50q60 4 98 10t59 23.5t29 50.5t8 90v952q0 58 -8 91t-29 50t-59 23t-98 10v50h1108l134 -326l-42 -22q-47 64 -99 112t-114.5 80.5t-138.5 49t-172 16.5h-224q-29 0 -44.5 -15.5t-15.5 -44.5
v-474h324q55 0 90 12.5t55 36.5t29 60.5t14 84.5h52v-478h-52q-5 48 -14 84.5t-29 60.5t-55 36.5t-90 12.5h-324v-536q0 -29 15.5 -44.5t44.5 -15.5h208zM768 1486h-82l-266 234q-24 21 -33 32.5t-9 25.5t7.5 22t24.5 8h118q23 0 35 -8.5t21 -23.5z" />
    <glyph glyph-name="Eacute" unicode="&#xc9;" horiz-adv-x="1376" 
d="M824 1776q11 15 22 23.5t34 8.5h120q15 0 23.5 -8t8.5 -22t-9.5 -25.5t-32.5 -32.5l-268 -234h-80zM720 90q113 0 200.5 22t158 62.5t128.5 96t113 123.5l42 -26l-196 -368h-1106v50q60 4 98 10t59 23.5t29 50.5t8 90v952q0 58 -8 91t-29 50t-59 23t-98 10v50h1108
l134 -326l-42 -22q-47 64 -99 112t-114.5 80.5t-138.5 49t-172 16.5h-224q-29 0 -44.5 -15.5t-15.5 -44.5v-474h324q55 0 90 12.5t55 36.5t29 60.5t14 84.5h52v-478h-52q-5 48 -14 84.5t-29 60.5t-55 36.5t-90 12.5h-324v-536q0 -29 15.5 -44.5t44.5 -15.5h208z" />
    <glyph glyph-name="Ecircumflex" unicode="&#xca;" horiz-adv-x="1376" 
d="M602 1778q12 18 26.5 27t35.5 9h86q21 0 35 -9t25 -27l200 -294h-82l-222 212l-222 -212h-82zM720 90q113 0 200.5 22t158 62.5t128.5 96t113 123.5l42 -26l-196 -368h-1106v50q60 4 98 10t59 23.5t29 50.5t8 90v952q0 58 -8 91t-29 50t-59 23t-98 10v50h1108l134 -326
l-42 -22q-47 64 -99 112t-114.5 80.5t-138.5 49t-172 16.5h-224q-29 0 -44.5 -15.5t-15.5 -44.5v-474h324q55 0 90 12.5t55 36.5t29 60.5t14 84.5h52v-478h-52q-5 48 -14 84.5t-29 60.5t-55 36.5t-90 12.5h-324v-536q0 -29 15.5 -44.5t44.5 -15.5h208z" />
    <glyph glyph-name="Edieresis" unicode="&#xcb;" horiz-adv-x="1376" 
d="M404 1700q0 42 29 73t77 31q24 0 44 -8.5t34 -22.5t22 -33t8 -40q0 -20 -8 -38.5t-22 -32.5t-34 -22.5t-44 -8.5t-43.5 8.5t-33.5 22.5t-21.5 32.5t-7.5 38.5zM736 1700q0 21 7.5 40t21.5 33t34 22.5t45 8.5q48 0 77 -31t29 -73q0 -20 -7.5 -38.5t-21.5 -32.5
t-33.5 -22.5t-43.5 -8.5q-25 0 -45 8.5t-34 22.5t-21.5 32.5t-7.5 38.5zM720 90q113 0 200.5 22t158 62.5t128.5 96t113 123.5l42 -26l-196 -368h-1106v50q60 4 98 10t59 23.5t29 50.5t8 90v952q0 58 -8 91t-29 50t-59 23t-98 10v50h1108l134 -326l-42 -22q-47 64 -99 112
t-114.5 80.5t-138.5 49t-172 16.5h-224q-29 0 -44.5 -15.5t-15.5 -44.5v-474h324q55 0 90 12.5t55 36.5t29 60.5t14 84.5h52v-478h-52q-5 48 -14 84.5t-29 60.5t-55 36.5t-90 12.5h-324v-536q0 -29 15.5 -44.5t44.5 -15.5h208z" />
    <glyph glyph-name="Igrave" unicode="&#xcc;" horiz-adv-x="704" 
d="M60 0v50q60 4 98 10t59 23.5t29 50.5t8 90v952q0 58 -8 91t-29 50t-59 23t-98 10v50h586v-50q-60 -4 -98 -10t-59 -23t-29 -50t-8 -91v-952q0 -57 8 -90t29 -50.5t59 -23.5t98 -10v-50h-586zM426 1486h-82l-266 234q-24 21 -33 32.5t-9 25.5t7.5 22t24.5 8h118
q23 0 35 -8.5t21 -23.5z" />
    <glyph glyph-name="Iacute" unicode="&#xcd;" horiz-adv-x="704" 
d="M60 0v50q60 4 98 10t59 23.5t29 50.5t8 90v952q0 58 -8 91t-29 50t-59 23t-98 10v50h586v-50q-60 -4 -98 -10t-59 -23t-29 -50t-8 -91v-952q0 -57 8 -90t29 -50.5t59 -23.5t98 -10v-50h-586zM482 1776q11 15 22 23.5t34 8.5h120q15 0 23.5 -8t8.5 -22t-9.5 -25.5
t-32.5 -32.5l-268 -234h-80z" />
    <glyph glyph-name="Icircumflex" unicode="&#xce;" horiz-adv-x="704" 
d="M60 0v50q60 4 98 10t59 23.5t29 50.5t8 90v952q0 58 -8 91t-29 50t-59 23t-98 10v50h586v-50q-60 -4 -98 -10t-59 -23t-29 -50t-8 -91v-952q0 -57 8 -90t29 -50.5t59 -23.5t98 -10v-50h-586zM252 1778q12 18 26.5 27t35.5 9h86q21 0 35 -9t25 -27l200 -294h-82l-222 212
l-222 -212h-82z" />
    <glyph glyph-name="Idieresis" unicode="&#xcf;" horiz-adv-x="704" 
d="M60 0v50q60 4 98 10t59 23.5t29 50.5t8 90v952q0 58 -8 91t-29 50t-59 23t-98 10v50h586v-50q-60 -4 -98 -10t-59 -23t-29 -50t-8 -91v-952q0 -57 8 -90t29 -50.5t59 -23.5t98 -10v-50h-586zM84 1700q0 42 29 73t77 31q24 0 44 -8.5t34 -22.5t22 -33t8 -40
q0 -20 -8 -38.5t-22 -32.5t-34 -22.5t-44 -8.5t-43.5 8.5t-33.5 22.5t-21.5 32.5t-7.5 38.5zM416 1700q0 21 7.5 40t21.5 33t34 22.5t45 8.5q48 0 77 -31t29 -73q0 -20 -7.5 -38.5t-21.5 -32.5t-33.5 -22.5t-43.5 -8.5q-25 0 -45 8.5t-34 22.5t-21.5 32.5t-7.5 38.5z" />
    <glyph glyph-name="Eth" unicode="&#xd0;" horiz-adv-x="1528" 
d="M60 776h194v400q0 58 -8 91t-29 50t-59 23t-98 10v50h630q172 0 310.5 -43.5t236 -130.5t150.5 -218.5t53 -307.5t-53 -307.5t-150.5 -218.5t-236 -130.5t-310.5 -43.5h-630v50q60 4 98 10t59 23.5t29 50.5t8 90v462h-194v90zM1220 700q0 186 -41 304.5t-112.5 186.5
t-168 93.5t-208.5 25.5h-178q-29 0 -44.5 -15.5t-15.5 -44.5v-474h198v-90h-198v-536q0 -29 15.5 -44.5t44.5 -15.5h178q112 0 208.5 25.5t168 93.5t112.5 186.5t41 304.5z" />
    <glyph glyph-name="Ntilde" unicode="&#xd1;" horiz-adv-x="1516" 
d="M60 0v50q60 4 98 10t60 23.5t30 50.5t8 90v952q0 58 -8 91t-30 50t-60 23t-98 10v50h436l684 -1046v822q0 58 -7 91t-27.5 50t-57.5 23t-98 10v50h484v-50q-60 -4 -97.5 -10t-58.5 -23t-28.5 -50t-7.5 -91v-1176h-108l-816 1248v-1024q0 -57 8 -90t30 -50.5t60 -23.5
t98 -10v-50h-494zM1026 1784q-4 -53 -18 -90.5t-35.5 -62t-50 -36t-60.5 -11.5q-36 0 -67.5 16.5t-60.5 36.5t-56 36.5t-54 16.5q-24 0 -46 -20t-30 -68h-64q4 52 18 90t35.5 62.5t50 36t60.5 11.5q36 0 68 -16.5t61 -36.5t56.5 -36.5t54.5 -16.5q26 0 48 20t30 68h60z" />
    <glyph glyph-name="Ograve" unicode="&#xd2;" horiz-adv-x="1506" 
d="M88 700q0 158 46 292t132 231.5t209 152t277 54.5t277.5 -54.5t210 -152t132.5 -231.5t46 -292t-46 -292t-132.5 -231.5t-210 -152t-277.5 -54.5t-277 54.5t-209 152t-132 231.5t-46 292zM308 700q0 -140 23.5 -258t76 -203.5t137.5 -133t207 -47.5q123 0 208 47.5
t138 133t76.5 203.5t23.5 258t-23.5 258.5t-76.5 204t-138 133.5t-208 48q-122 0 -207 -48t-137.5 -133.5t-76 -204t-23.5 -258.5zM824 1486h-82l-266 234q-24 21 -33 32.5t-9 25.5t7.5 22t24.5 8h118q23 0 35 -8.5t21 -23.5z" />
    <glyph glyph-name="Oacute" unicode="&#xd3;" horiz-adv-x="1506" 
d="M880 1776q11 15 22 23.5t34 8.5h120q15 0 23.5 -8t8.5 -22t-9.5 -25.5t-32.5 -32.5l-268 -234h-80zM88 700q0 158 46 292t132 231.5t209 152t277 54.5t277.5 -54.5t210 -152t132.5 -231.5t46 -292t-46 -292t-132.5 -231.5t-210 -152t-277.5 -54.5t-277 54.5t-209 152
t-132 231.5t-46 292zM308 700q0 -140 23.5 -258t76 -203.5t137.5 -133t207 -47.5q123 0 208 47.5t138 133t76.5 203.5t23.5 258t-23.5 258.5t-76.5 204t-138 133.5t-208 48q-122 0 -207 -48t-137.5 -133.5t-76 -204t-23.5 -258.5z" />
    <glyph glyph-name="Ocircumflex" unicode="&#xd4;" horiz-adv-x="1506" 
d="M646 1778q12 18 26.5 27t35.5 9h86q21 0 35 -9t25 -27l200 -294h-82l-222 212l-222 -212h-82zM88 700q0 158 46 292t132 231.5t209 152t277 54.5t277.5 -54.5t210 -152t132.5 -231.5t46 -292t-46 -292t-132.5 -231.5t-210 -152t-277.5 -54.5t-277 54.5t-209 152
t-132 231.5t-46 292zM308 700q0 -140 23.5 -258t76 -203.5t137.5 -133t207 -47.5q123 0 208 47.5t138 133t76.5 203.5t23.5 258t-23.5 258.5t-76.5 204t-138 133.5t-208 48q-122 0 -207 -48t-137.5 -133.5t-76 -204t-23.5 -258.5z" />
    <glyph glyph-name="Otilde" unicode="&#xd5;" horiz-adv-x="1506" 
d="M88 700q0 158 46 292t132 231.5t209 152t277 54.5t277.5 -54.5t210 -152t132.5 -231.5t46 -292t-46 -292t-132.5 -231.5t-210 -152t-277.5 -54.5t-277 54.5t-209 152t-132 231.5t-46 292zM308 700q0 -140 23.5 -258t76 -203.5t137.5 -133t207 -47.5q123 0 208 47.5
t138 133t76.5 203.5t23.5 258t-23.5 258.5t-76.5 204t-138 133.5t-208 48q-122 0 -207 -48t-137.5 -133.5t-76 -204t-23.5 -258.5zM1022 1784q-4 -53 -18 -90.5t-35.5 -62t-50 -36t-60.5 -11.5q-36 0 -67.5 16.5t-60.5 36.5t-56 36.5t-54 16.5q-24 0 -46 -20t-30 -68h-64
q4 52 18 90t35.5 62.5t50 36t60.5 11.5q36 0 68 -16.5t61 -36.5t56.5 -36.5t54.5 -16.5q26 0 48 20t30 68h60z" />
    <glyph glyph-name="Odieresis" unicode="&#xd6;" horiz-adv-x="1506" 
d="M478 1700q0 42 29 73t77 31q24 0 44 -8.5t34 -22.5t22 -33t8 -40q0 -20 -8 -38.5t-22 -32.5t-34 -22.5t-44 -8.5t-43.5 8.5t-33.5 22.5t-21.5 32.5t-7.5 38.5zM810 1700q0 21 7.5 40t21.5 33t34 22.5t45 8.5q48 0 77 -31t29 -73q0 -20 -7.5 -38.5t-21.5 -32.5
t-33.5 -22.5t-43.5 -8.5q-25 0 -45 8.5t-34 22.5t-21.5 32.5t-7.5 38.5zM88 700q0 158 46 292t132 231.5t209 152t277 54.5t277.5 -54.5t210 -152t132.5 -231.5t46 -292t-46 -292t-132.5 -231.5t-210 -152t-277.5 -54.5t-277 54.5t-209 152t-132 231.5t-46 292zM308 700
q0 -140 23.5 -258t76 -203.5t137.5 -133t207 -47.5q123 0 208 47.5t138 133t76.5 203.5t23.5 258t-23.5 258.5t-76.5 204t-138 133.5t-208 48q-122 0 -207 -48t-137.5 -133.5t-76 -204t-23.5 -258.5z" />
    <glyph glyph-name="multiply" unicode="&#xd7;" horiz-adv-x="1104" 
d="M132 354l348 346l-348 348l70 70l348 -348l350 350l70 -70l-350 -350l350 -348l-70 -70l-350 348l-348 -346z" />
    <glyph glyph-name="Oslash" unicode="&#xd8;" horiz-adv-x="1506" 
d="M88 700q0 158 46 292t132 231.5t209 152t277 54.5q130 0 236.5 -38.5t189.5 -109.5l98 118h110l-146 -178q86 -98 132 -231t46 -291t-46 -292t-132.5 -231.5t-210 -152t-277.5 -54.5q-130 0 -236.5 38.5t-189.5 107.5l-96 -116h-110l146 176q-88 98 -133 231t-45 293z
M308 700q0 -116 15.5 -215t48.5 -179l718 868q-54 81 -136.5 125.5t-201.5 44.5q-122 0 -207 -48t-137.5 -133.5t-76 -204t-23.5 -258.5zM1198 700q0 115 -15.5 213.5t-50.5 178.5l-716 -866q54 -80 135.5 -124t200.5 -44q123 0 208 47.5t138 133t76.5 203.5t23.5 258z" />
    <glyph glyph-name="Ugrave" unicode="&#xd9;" horiz-adv-x="1532" 
d="M434 412q0 -92 29.5 -158t82 -108.5t125.5 -63t159 -20.5q74 0 140.5 21t116 63.5t78.5 107.5t29 154v768q0 58 -8 91t-29 50t-59 23t-98 10v50h490v-50q-60 -4 -98 -10t-59 -23t-29 -50t-8 -91v-768q0 -89 -30.5 -168.5t-92.5 -139.5t-156 -95t-221 -35
q-131 0 -234.5 27.5t-176 82.5t-111 137t-38.5 191v768q0 58 -8 91t-29 50t-59 23t-98 10v50h586v-50q-60 -4 -98 -10t-59 -23t-29 -50t-8 -91v-764zM864 1486h-82l-266 234q-24 21 -33 32.5t-9 25.5t7.5 22t24.5 8h118q23 0 35 -8.5t21 -23.5z" />
    <glyph glyph-name="Uacute" unicode="&#xda;" horiz-adv-x="1532" 
d="M936 1776q11 15 22 23.5t34 8.5h120q15 0 23.5 -8t8.5 -22t-9.5 -25.5t-32.5 -32.5l-268 -234h-80zM434 412q0 -92 29.5 -158t82 -108.5t125.5 -63t159 -20.5q74 0 140.5 21t116 63.5t78.5 107.5t29 154v768q0 58 -8 91t-29 50t-59 23t-98 10v50h490v-50q-60 -4 -98 -10
t-59 -23t-29 -50t-8 -91v-768q0 -89 -30.5 -168.5t-92.5 -139.5t-156 -95t-221 -35q-131 0 -234.5 27.5t-176 82.5t-111 137t-38.5 191v768q0 58 -8 91t-29 50t-59 23t-98 10v50h586v-50q-60 -4 -98 -10t-59 -23t-29 -50t-8 -91v-764z" />
    <glyph glyph-name="Ucircumflex" unicode="&#xdb;" horiz-adv-x="1532" 
d="M660 1778q12 18 26.5 27t35.5 9h86q21 0 35 -9t25 -27l200 -294h-82l-222 212l-222 -212h-82zM434 412q0 -92 29.5 -158t82 -108.5t125.5 -63t159 -20.5q74 0 140.5 21t116 63.5t78.5 107.5t29 154v768q0 58 -8 91t-29 50t-59 23t-98 10v50h490v-50q-60 -4 -98 -10
t-59 -23t-29 -50t-8 -91v-768q0 -89 -30.5 -168.5t-92.5 -139.5t-156 -95t-221 -35q-131 0 -234.5 27.5t-176 82.5t-111 137t-38.5 191v768q0 58 -8 91t-29 50t-59 23t-98 10v50h586v-50q-60 -4 -98 -10t-59 -23t-29 -50t-8 -91v-764z" />
    <glyph glyph-name="Udieresis" unicode="&#xdc;" horiz-adv-x="1532" 
d="M524 1700q0 42 29 73t77 31q24 0 44 -8.5t34 -22.5t22 -33t8 -40q0 -20 -8 -38.5t-22 -32.5t-34 -22.5t-44 -8.5t-43.5 8.5t-33.5 22.5t-21.5 32.5t-7.5 38.5zM856 1700q0 21 7.5 40t21.5 33t34 22.5t45 8.5q48 0 77 -31t29 -73q0 -20 -7.5 -38.5t-21.5 -32.5
t-33.5 -22.5t-43.5 -8.5q-25 0 -45 8.5t-34 22.5t-21.5 32.5t-7.5 38.5zM434 412q0 -92 29.5 -158t82 -108.5t125.5 -63t159 -20.5q74 0 140.5 21t116 63.5t78.5 107.5t29 154v768q0 58 -8 91t-29 50t-59 23t-98 10v50h490v-50q-60 -4 -98 -10t-59 -23t-29 -50t-8 -91v-768
q0 -89 -30.5 -168.5t-92.5 -139.5t-156 -95t-221 -35q-131 0 -234.5 27.5t-176 82.5t-111 137t-38.5 191v768q0 58 -8 91t-29 50t-59 23t-98 10v50h586v-50q-60 -4 -98 -10t-59 -23t-29 -50t-8 -91v-764z" />
    <glyph glyph-name="Yacute" unicode="&#xdd;" horiz-adv-x="1260" 
d="M342 50q60 4 98 10t59 23.5t29 50.5t8 90v314l-364 638q-26 44 -46 75.5t-41 52t-47.5 31.5t-63.5 15v50h526v-50q-52 -4 -84.5 -15t-46 -31.5t-7.5 -51.5t32 -74l294 -516l280 514q24 45 29 76.5t-8.5 52t-47 31t-85.5 14.5v50h430v-50q-42 -4 -71.5 -14.5t-52.5 -30.5
t-43.5 -51.5t-44.5 -77.5l-340 -632v-320q0 -57 8 -90t29 -50.5t59 -23.5t98 -10v-50h-586v50zM800 1776q11 15 22 23.5t34 8.5h120q15 0 23.5 -8t8.5 -22t-9.5 -25.5t-32.5 -32.5l-268 -234h-80z" />
    <glyph glyph-name="Thorn" unicode="&#xde;" horiz-adv-x="1378" 
d="M646 1400v-50q-60 -4 -98 -10t-59 -23t-29 -50t-8 -91v-88h302q124 0 228 -19t179 -61.5t117 -110.5t42 -165t-42 -164.5t-117 -110t-179.5 -62t-229.5 -19.5h-300v-152q0 -57 8 -90t29 -50.5t59 -23.5t98 -10v-50h-586v50q60 4 98 10t59 23.5t29 50.5t8 90v952
q0 58 -8 91t-29 50t-59 23t-98 10v50h586zM1100 732q0 138 -90 203t-256 65h-302v-534h300q168 0 258 64t90 202z" />
    <glyph glyph-name="germandbls" unicode="&#xdf;" horiz-adv-x="1226" 
d="M52 902h136v66q0 123 33 210.5t90 143.5t133.5 82t163.5 26q80 0 146.5 -19.5t114.5 -56.5t74.5 -90t26.5 -120q0 -38 -16.5 -77.5t-48.5 -75t-80 -64t-111 -43.5q93 -14 174.5 -47t141.5 -90t95 -139t35 -192q0 -98 -25.5 -179.5t-74.5 -141t-121 -92.5t-165 -33
q-79 0 -138 24t-98.5 62t-59.5 84.5t-20 91.5t24 68.5t62 23.5q15 0 30 -5.5t27 -17.5t21 -32.5t12 -50.5q12 -80 43 -125t97 -45q57 0 94.5 26.5t59.5 74.5t31 115.5t9 149.5q0 112 -28 190.5t-82 127t-133 70.5t-181 22h-58v78q83 0 142.5 21t97.5 55.5t56 78t18 87.5
q0 46 -14 84.5t-40 66t-63 42.5t-83 15q-48 0 -91 -14t-75 -46t-51 -83.5t-19 -126.5v-928q0 -54 25 -75.5t73 -28.5v-50h-410v50q41 4 67.5 10.5t41.5 18.5t21 30t6 45v666h-136v82z" />
    <glyph glyph-name="agrave" unicode="&#xe0;" horiz-adv-x="1036" 
d="M828 -22q-60 0 -102 29.5t-54 94.5q-35 -24 -74 -47t-81 -41t-86.5 -29t-90.5 -11q-62 0 -112 13.5t-85 40.5t-54 67t-19 93q0 81 45.5 137.5t125.5 95.5t189.5 65.5t237.5 47.5v120q0 55 -7 93.5t-23.5 62.5t-44 35t-69.5 11q-172 0 -208 -146q-14 -51 -40.5 -73.5
t-59.5 -22.5q-38 0 -58 22.5t-20 67.5q0 43 27.5 84t79 73t124.5 51.5t165 19.5q64 0 120.5 -13t99 -45.5t67.5 -87t25 -136.5v-470q0 -56 15.5 -82t48.5 -26q15 0 33 5t41 17v-72q-32 -21 -69 -32.5t-87 -11.5zM404 76q68 0 133.5 29.5t130.5 74.5v278q-92 -14 -166.5 -32
t-128 -46.5t-82.5 -69t-29 -98.5q0 -35 10.5 -61t29.5 -42.5t45 -24.5t57 -8zM580 1024h-82l-266 234q-24 21 -33 32.5t-9 25.5t7.5 22t24.5 8h118q23 0 35 -8.5t21 -23.5z" />
    <glyph glyph-name="aacute" unicode="&#xe1;" horiz-adv-x="1036" 
d="M828 -22q-60 0 -102 29.5t-54 94.5q-35 -24 -74 -47t-81 -41t-86.5 -29t-90.5 -11q-62 0 -112 13.5t-85 40.5t-54 67t-19 93q0 81 45.5 137.5t125.5 95.5t189.5 65.5t237.5 47.5v120q0 55 -7 93.5t-23.5 62.5t-44 35t-69.5 11q-172 0 -208 -146q-14 -51 -40.5 -73.5
t-59.5 -22.5q-38 0 -58 22.5t-20 67.5q0 43 27.5 84t79 73t124.5 51.5t165 19.5q64 0 120.5 -13t99 -45.5t67.5 -87t25 -136.5v-470q0 -56 15.5 -82t48.5 -26q15 0 33 5t41 17v-72q-32 -21 -69 -32.5t-87 -11.5zM404 76q68 0 133.5 29.5t130.5 74.5v278q-92 -14 -166.5 -32
t-128 -46.5t-82.5 -69t-29 -98.5q0 -35 10.5 -61t29.5 -42.5t45 -24.5t57 -8zM652 1314q11 15 22 23.5t34 8.5h120q15 0 23.5 -8t8.5 -22t-9.5 -25.5t-32.5 -32.5l-268 -234h-80z" />
    <glyph glyph-name="acircumflex" unicode="&#xe2;" horiz-adv-x="1036" 
d="M828 -22q-60 0 -102 29.5t-54 94.5q-35 -24 -74 -47t-81 -41t-86.5 -29t-90.5 -11q-62 0 -112 13.5t-85 40.5t-54 67t-19 93q0 81 45.5 137.5t125.5 95.5t189.5 65.5t237.5 47.5v120q0 55 -7 93.5t-23.5 62.5t-44 35t-69.5 11q-172 0 -208 -146q-14 -51 -40.5 -73.5
t-59.5 -22.5q-38 0 -58 22.5t-20 67.5q0 43 27.5 84t79 73t124.5 51.5t165 19.5q64 0 120.5 -13t99 -45.5t67.5 -87t25 -136.5v-470q0 -56 15.5 -82t48.5 -26q15 0 33 5t41 17v-72q-32 -21 -69 -32.5t-87 -11.5zM404 76q68 0 133.5 29.5t130.5 74.5v278q-92 -14 -166.5 -32
t-128 -46.5t-82.5 -69t-29 -98.5q0 -35 10.5 -61t29.5 -42.5t45 -24.5t57 -8zM426 1316q12 18 26.5 27t35.5 9h86q21 0 35 -9t25 -27l200 -294h-82l-222 212l-222 -212h-82z" />
    <glyph glyph-name="atilde" unicode="&#xe3;" horiz-adv-x="1036" 
d="M828 -22q-60 0 -102 29.5t-54 94.5q-35 -24 -74 -47t-81 -41t-86.5 -29t-90.5 -11q-62 0 -112 13.5t-85 40.5t-54 67t-19 93q0 81 45.5 137.5t125.5 95.5t189.5 65.5t237.5 47.5v120q0 55 -7 93.5t-23.5 62.5t-44 35t-69.5 11q-172 0 -208 -146q-14 -51 -40.5 -73.5
t-59.5 -22.5q-38 0 -58 22.5t-20 67.5q0 43 27.5 84t79 73t124.5 51.5t165 19.5q64 0 120.5 -13t99 -45.5t67.5 -87t25 -136.5v-470q0 -56 15.5 -82t48.5 -26q15 0 33 5t41 17v-72q-32 -21 -69 -32.5t-87 -11.5zM404 76q68 0 133.5 29.5t130.5 74.5v278q-92 -14 -166.5 -32
t-128 -46.5t-82.5 -69t-29 -98.5q0 -35 10.5 -61t29.5 -42.5t45 -24.5t57 -8zM800 1322q-4 -53 -18 -90.5t-35.5 -62t-50 -36t-60.5 -11.5q-36 0 -67.5 16.5t-60.5 36.5t-56 36.5t-54 16.5q-24 0 -46 -20t-30 -68h-64q4 52 18 90t35.5 62.5t50 36t60.5 11.5q36 0 68 -16.5
t61 -36.5t56.5 -36.5t54.5 -16.5q26 0 48 20t30 68h60z" />
    <glyph glyph-name="adieresis" unicode="&#xe4;" horiz-adv-x="1036" 
d="M828 -22q-60 0 -102 29.5t-54 94.5q-35 -24 -74 -47t-81 -41t-86.5 -29t-90.5 -11q-62 0 -112 13.5t-85 40.5t-54 67t-19 93q0 81 45.5 137.5t125.5 95.5t189.5 65.5t237.5 47.5v120q0 55 -7 93.5t-23.5 62.5t-44 35t-69.5 11q-172 0 -208 -146q-14 -51 -40.5 -73.5
t-59.5 -22.5q-38 0 -58 22.5t-20 67.5q0 43 27.5 84t79 73t124.5 51.5t165 19.5q64 0 120.5 -13t99 -45.5t67.5 -87t25 -136.5v-470q0 -56 15.5 -82t48.5 -26q15 0 33 5t41 17v-72q-32 -21 -69 -32.5t-87 -11.5zM404 76q68 0 133.5 29.5t130.5 74.5v278q-92 -14 -166.5 -32
t-128 -46.5t-82.5 -69t-29 -98.5q0 -35 10.5 -61t29.5 -42.5t45 -24.5t57 -8zM256 1238q0 42 29 73t77 31q24 0 44 -8.5t34 -22.5t22 -33t8 -40q0 -20 -8 -38.5t-22 -32.5t-34 -22.5t-44 -8.5t-43.5 8.5t-33.5 22.5t-21.5 32.5t-7.5 38.5zM588 1238q0 21 7.5 40t21.5 33
t34 22.5t45 8.5q48 0 77 -31t29 -73q0 -20 -7.5 -38.5t-21.5 -32.5t-33.5 -22.5t-43.5 -8.5q-25 0 -45 8.5t-34 22.5t-21.5 32.5t-7.5 38.5z" />
    <glyph glyph-name="aring" unicode="&#xe5;" horiz-adv-x="1036" 
d="M828 -22q-60 0 -102 29.5t-54 94.5q-35 -24 -74 -47t-81 -41t-86.5 -29t-90.5 -11q-62 0 -112 13.5t-85 40.5t-54 67t-19 93q0 81 45.5 137.5t125.5 95.5t189.5 65.5t237.5 47.5v120q0 55 -7 93.5t-23.5 62.5t-44 35t-69.5 11q-172 0 -208 -146q-14 -51 -40.5 -73.5
t-59.5 -22.5q-38 0 -58 22.5t-20 67.5q0 43 27.5 84t79 73t124.5 51.5t165 19.5q64 0 120.5 -13t99 -45.5t67.5 -87t25 -136.5v-470q0 -56 15.5 -82t48.5 -26q15 0 33 5t41 17v-72q-32 -21 -69 -32.5t-87 -11.5zM404 76q68 0 133.5 29.5t130.5 74.5v278q-92 -14 -166.5 -32
t-128 -46.5t-82.5 -69t-29 -98.5q0 -35 10.5 -61t29.5 -42.5t45 -24.5t57 -8zM312 1230q0 41 15.5 77.5t42.5 63.5t63 43t77 16q42 0 79 -16t64 -43t43 -63.5t16 -77.5q0 -40 -16 -76t-43 -63t-64 -43t-79 -16q-41 0 -77 16t-63 43t-42.5 63t-15.5 76zM390 1230q0 -26 9 -49
t25.5 -39.5t38 -26t47.5 -9.5t49 9.5t40 26t27 39.5t10 49t-10 49t-27 39.5t-40 26t-49 9.5t-47.5 -9.5t-38 -26t-25.5 -39.5t-9 -49z" />
    <glyph glyph-name="ae" unicode="&#xe6;" horiz-adv-x="1614" 
d="M534 932q44 0 84.5 -8.5t75 -27.5t60.5 -49t42 -73q51 72 131 115t193 43q87 0 159 -25.5t124 -74.5t80.5 -120.5t28.5 -163.5h-648q-6 -48 -6 -96q0 -87 16.5 -160t54 -126t96.5 -82.5t145 -29.5q100 0 178.5 61.5t123.5 168.5l74 -34q-26 -62 -63.5 -113.5t-85.5 -88.5
t-108 -57.5t-131 -20.5q-140 0 -239 47.5t-161 128.5q-37 -30 -83.5 -60.5t-100.5 -55.5t-113.5 -40.5t-120.5 -15.5q-62 0 -112 13.5t-85 40.5t-54 67t-19 93q0 81 45.5 137.5t125.5 95.5t189.5 65.5t237.5 47.5v120q0 55 -7 93.5t-23.5 62.5t-44 35t-69.5 11
q-172 0 -208 -146q-14 -51 -40.5 -73.5t-59.5 -22.5q-38 0 -58 22.5t-20 67.5q0 43 27.5 84t78.5 73t124.5 51.5t165.5 19.5zM724 204q-30 56 -43 119.5t-13 134.5q-92 -14 -166.5 -32t-128 -46.5t-82.5 -69t-29 -98.5q0 -35 10.5 -61t29.5 -42.5t45 -24.5t57 -8
q44 0 87 10.5t83.5 28t78 40.5t71.5 49zM1122 854q-59 0 -101.5 -16t-72.5 -45.5t-48 -71t-28 -93.5h462q0 55 -16 97t-44.5 70.5t-67 43.5t-84.5 15z" />
    <glyph glyph-name="ccedilla" unicode="&#xe7;" horiz-adv-x="964" 
d="M598 -120q69 0 114.5 -33t45.5 -99q0 -34 -17.5 -67t-50.5 -59.5t-81 -43t-109 -16.5q-48 0 -87 9.5t-67 25.5t-43 36.5t-15 42.5q0 26 16 44t42 18q23 0 36 -8.5t21.5 -20.5t15 -27t17 -27t28 -20.5t48.5 -8.5q59 0 89.5 27.5t30.5 68.5q0 30 -23 50t-59 20
q-26 0 -45.5 -6.5t-36.5 -21.5l-48 20l78 188q-103 7 -182.5 46t-134 102.5t-83 148.5t-28.5 183q0 102 33 189.5t92 152t140.5 101.5t178.5 37q79 0 144.5 -20t112 -52t72 -72.5t25.5 -81.5q0 -45 -27 -68.5t-65 -23.5q-33 0 -59 22.5t-37 73.5q-11 65 -49.5 104.5
t-116.5 39.5q-71 0 -119 -30t-77.5 -84t-42.5 -127.5t-13 -160.5t18 -160t54 -126t91.5 -82.5t130.5 -29.5q53 0 96.5 16.5t78.5 46.5t63.5 73.5t51.5 97.5l72 -38q-24 -58 -55.5 -106.5t-72 -84.5t-91.5 -58.5t-115 -28.5l-44 -102q12 5 24.5 7.5t33.5 2.5z" />
    <glyph glyph-name="egrave" unicode="&#xe8;" horiz-adv-x="1018" 
d="M266 548q-2 -24 -3 -48t-1 -48q0 -87 16.5 -160t53.5 -126t96.5 -82.5t145.5 -29.5q98 0 177.5 61.5t124.5 168.5l74 -34q-26 -62 -63.5 -113.5t-85.5 -88.5t-108 -57.5t-131 -20.5q-120 0 -212 37t-154 101.5t-94 152.5t-32 191q0 102 31 189.5t89.5 152t142 101.5
t189.5 37q88 0 160.5 -25.5t124.5 -74.5t80.5 -120.5t28.5 -163.5h-650zM524 854q-58 0 -100 -16t-72 -45.5t-48 -71t-28 -93.5h462q0 55 -16.5 97t-45 70.5t-67.5 43.5t-85 15zM574 1018h-82l-266 234q-24 21 -33 32.5t-9 25.5t7.5 22t24.5 8h118q23 0 35 -8.5t21 -23.5z
" />
    <glyph glyph-name="eacute" unicode="&#xe9;" horiz-adv-x="1018" 
d="M646 1308q11 15 22 23.5t34 8.5h120q15 0 23.5 -8t8.5 -22t-9.5 -25.5t-32.5 -32.5l-268 -234h-80zM266 548q-2 -24 -3 -48t-1 -48q0 -87 16.5 -160t53.5 -126t96.5 -82.5t145.5 -29.5q98 0 177.5 61.5t124.5 168.5l74 -34q-26 -62 -63.5 -113.5t-85.5 -88.5t-108 -57.5
t-131 -20.5q-120 0 -212 37t-154 101.5t-94 152.5t-32 191q0 102 31 189.5t89.5 152t142 101.5t189.5 37q88 0 160.5 -25.5t124.5 -74.5t80.5 -120.5t28.5 -163.5h-650zM524 854q-58 0 -100 -16t-72 -45.5t-48 -71t-28 -93.5h462q0 55 -16.5 97t-45 70.5t-67.5 43.5t-85 15z
" />
    <glyph glyph-name="ecircumflex" unicode="&#xea;" horiz-adv-x="1018" 
d="M422 1310q12 18 26.5 27t35.5 9h86q21 0 35 -9t25 -27l200 -294h-82l-222 212l-222 -212h-82zM266 548q-2 -24 -3 -48t-1 -48q0 -87 16.5 -160t53.5 -126t96.5 -82.5t145.5 -29.5q98 0 177.5 61.5t124.5 168.5l74 -34q-26 -62 -63.5 -113.5t-85.5 -88.5t-108 -57.5
t-131 -20.5q-120 0 -212 37t-154 101.5t-94 152.5t-32 191q0 102 31 189.5t89.5 152t142 101.5t189.5 37q88 0 160.5 -25.5t124.5 -74.5t80.5 -120.5t28.5 -163.5h-650zM524 854q-58 0 -100 -16t-72 -45.5t-48 -71t-28 -93.5h462q0 55 -16.5 97t-45 70.5t-67.5 43.5t-85 15z
" />
    <glyph glyph-name="edieresis" unicode="&#xeb;" horiz-adv-x="1018" 
d="M254 1232q0 42 29 73t77 31q24 0 44 -8.5t34 -22.5t22 -33t8 -40q0 -20 -8 -38.5t-22 -32.5t-34 -22.5t-44 -8.5t-43.5 8.5t-33.5 22.5t-21.5 32.5t-7.5 38.5zM586 1232q0 21 7.5 40t21.5 33t34 22.5t45 8.5q48 0 77 -31t29 -73q0 -20 -7.5 -38.5t-21.5 -32.5
t-33.5 -22.5t-43.5 -8.5q-25 0 -45 8.5t-34 22.5t-21.5 32.5t-7.5 38.5zM266 548q-2 -24 -3 -48t-1 -48q0 -87 16.5 -160t53.5 -126t96.5 -82.5t145.5 -29.5q98 0 177.5 61.5t124.5 168.5l74 -34q-26 -62 -63.5 -113.5t-85.5 -88.5t-108 -57.5t-131 -20.5q-120 0 -212 37
t-154 101.5t-94 152.5t-32 191q0 102 31 189.5t89.5 152t142 101.5t189.5 37q88 0 160.5 -25.5t124.5 -74.5t80.5 -120.5t28.5 -163.5h-650zM524 854q-58 0 -100 -16t-72 -45.5t-48 -71t-28 -93.5h462q0 55 -16.5 97t-45 70.5t-67.5 43.5t-85 15z" />
    <glyph glyph-name="igrave" unicode="&#xec;" horiz-adv-x="552" 
d="M52 0v50q41 4 67.5 10.5t41.5 18.5t21 30t6 45v516q0 36 -14.5 51t-47.5 15h-74v40l250 156h62v-778q0 -27 5.5 -45t20.5 -30t41 -18.5t67 -10.5v-50h-446zM344 1018h-82l-266 234q-24 21 -33 32.5t-9 25.5t7.5 22t24.5 8h118q23 0 35 -8.5t21 -23.5z" />
    <glyph glyph-name="iacute" unicode="&#xed;" horiz-adv-x="552" 
d="M402 1308q11 15 22 23.5t34 8.5h120q15 0 23.5 -8t8.5 -22t-9.5 -25.5t-32.5 -32.5l-268 -234h-80zM52 0v50q41 4 67.5 10.5t41.5 18.5t21 30t6 45v516q0 36 -14.5 51t-47.5 15h-74v40l250 156h62v-778q0 -27 5.5 -45t20.5 -30t41 -18.5t67 -10.5v-50h-446z" />
    <glyph glyph-name="icircumflex" unicode="&#xee;" horiz-adv-x="552" 
d="M174 1310q12 18 26.5 27t35.5 9h86q21 0 35 -9t25 -27l200 -294h-82l-222 212l-222 -212h-82zM52 0v50q41 4 67.5 10.5t41.5 18.5t21 30t6 45v516q0 36 -14.5 51t-47.5 15h-74v40l250 156h62v-778q0 -27 5.5 -45t20.5 -30t41 -18.5t67 -10.5v-50h-446z" />
    <glyph glyph-name="idieresis" unicode="&#xef;" horiz-adv-x="552" 
d="M6 1232q0 42 29 73t77 31q24 0 44 -8.5t34 -22.5t22 -33t8 -40q0 -20 -8 -38.5t-22 -32.5t-34 -22.5t-44 -8.5t-43.5 8.5t-33.5 22.5t-21.5 32.5t-7.5 38.5zM338 1232q0 21 7.5 40t21.5 33t34 22.5t45 8.5q48 0 77 -31t29 -73q0 -20 -7.5 -38.5t-21.5 -32.5t-33.5 -22.5
t-43.5 -8.5q-25 0 -45 8.5t-34 22.5t-21.5 32.5t-7.5 38.5zM52 0v50q41 4 67.5 10.5t41.5 18.5t21 30t6 45v516q0 36 -14.5 51t-47.5 15h-74v40l250 156h62v-778q0 -27 5.5 -45t20.5 -30t41 -18.5t67 -10.5v-50h-446z" />
    <glyph glyph-name="eth" unicode="&#xf0;" horiz-adv-x="1086" 
d="M398 1166l240 94q-30 53 -62.5 95t-65.5 75h98q35 -29 68 -61.5t66 -68.5l258 100v-82l-208 -82q48 -65 88.5 -140.5t69.5 -160t45.5 -178t16.5 -193.5q0 -139 -33 -249t-93 -186.5t-145.5 -117.5t-190.5 -41q-110 0 -198.5 36.5t-151 101t-96.5 152.5t-34 190
q0 103 33.5 191t94 152.5t145 101.5t185.5 37q80 0 146 -27t116 -71q-18 100 -48.5 189.5t-71.5 166.5l-272 -106v82zM816 534q0 50 -2.5 96.5t-7.5 93.5q-22 26 -48.5 49.5t-59.5 41.5t-71.5 28.5t-84.5 10.5q-77 0 -129.5 -30.5t-85 -84.5t-47 -129.5t-14.5 -165.5
q0 -84 15 -156.5t48.5 -125.5t87.5 -83.5t133 -30.5q76 0 127.5 35t82 99t43.5 153.5t13 198.5z" />
    <glyph glyph-name="ntilde" unicode="&#xf1;" horiz-adv-x="1144" 
d="M646 0v50q41 4 67 10.5t41 18.5t20.5 30t5.5 45v508q0 44 -11 76t-31.5 52.5t-49.5 30t-64 9.5q-69 0 -135 -22.5t-125 -63.5v-590q0 -27 5.5 -45t20.5 -30t41 -18.5t67 -10.5v-50h-446v50q41 4 67.5 10.5t41.5 18.5t21 30t6 45v516q0 36 -14.5 51t-47.5 15h-74v40
l250 156h62v-100q29 18 65.5 36t77 32t83.5 23t84 9q44 0 94 -10.5t92 -40.5t70 -82.5t28 -136.5v-508q0 -27 5.5 -45t20.5 -30t41 -18.5t67 -10.5v-50h-446zM846 1316q-4 -53 -18 -90.5t-35.5 -62t-50 -36t-60.5 -11.5q-36 0 -67.5 16.5t-60.5 36.5t-56 36.5t-54 16.5
q-24 0 -46 -20t-30 -68h-64q4 52 18 90t35.5 62.5t50 36t60.5 11.5q36 0 68 -16.5t61 -36.5t56.5 -36.5t54.5 -16.5q26 0 48 20t30 68h60z" />
    <glyph glyph-name="ograve" unicode="&#xf2;" horiz-adv-x="1082" 
d="M70 452q0 102 34 189.5t95.5 152t148 101.5t192.5 37t193 -37t149 -101.5t96 -152t34 -189.5q0 -103 -34 -191t-96 -152.5t-149 -101.5t-193 -37t-192.5 37t-148 101.5t-95.5 152.5t-34 191zM262 452q0 -87 15 -161t48 -128t86 -84.5t129 -30.5t129 30.5t86.5 84.5
t49 128t15.5 161t-15.5 160.5t-49 127.5t-86.5 84t-129 30t-129 -30t-86 -84t-48 -127.5t-15 -160.5zM592 1018h-82l-266 234q-24 21 -33 32.5t-9 25.5t7.5 22t24.5 8h118q23 0 35 -8.5t21 -23.5z" />
    <glyph glyph-name="oacute" unicode="&#xf3;" horiz-adv-x="1082" 
d="M664 1308q11 15 22 23.5t34 8.5h120q15 0 23.5 -8t8.5 -22t-9.5 -25.5t-32.5 -32.5l-268 -234h-80zM70 452q0 102 34 189.5t95.5 152t148 101.5t192.5 37t193 -37t149 -101.5t96 -152t34 -189.5q0 -103 -34 -191t-96 -152.5t-149 -101.5t-193 -37t-192.5 37t-148 101.5
t-95.5 152.5t-34 191zM262 452q0 -87 15 -161t48 -128t86 -84.5t129 -30.5t129 30.5t86.5 84.5t49 128t15.5 161t-15.5 160.5t-49 127.5t-86.5 84t-129 30t-129 -30t-86 -84t-48 -127.5t-15 -160.5z" />
    <glyph glyph-name="ocircumflex" unicode="&#xf4;" horiz-adv-x="1082" 
d="M450 1310q12 18 26.5 27t35.5 9h86q21 0 35 -9t25 -27l200 -294h-82l-222 212l-222 -212h-82zM70 452q0 102 34 189.5t95.5 152t148 101.5t192.5 37t193 -37t149 -101.5t96 -152t34 -189.5q0 -103 -34 -191t-96 -152.5t-149 -101.5t-193 -37t-192.5 37t-148 101.5
t-95.5 152.5t-34 191zM262 452q0 -87 15 -161t48 -128t86 -84.5t129 -30.5t129 30.5t86.5 84.5t49 128t15.5 161t-15.5 160.5t-49 127.5t-86.5 84t-129 30t-129 -30t-86 -84t-48 -127.5t-15 -160.5z" />
    <glyph glyph-name="otilde" unicode="&#xf5;" horiz-adv-x="1082" 
d="M70 452q0 102 34 189.5t95.5 152t148 101.5t192.5 37t193 -37t149 -101.5t96 -152t34 -189.5q0 -103 -34 -191t-96 -152.5t-149 -101.5t-193 -37t-192.5 37t-148 101.5t-95.5 152.5t-34 191zM262 452q0 -87 15 -161t48 -128t86 -84.5t129 -30.5t129 30.5t86.5 84.5
t49 128t15.5 161t-15.5 160.5t-49 127.5t-86.5 84t-129 30t-129 -30t-86 -84t-48 -127.5t-15 -160.5zM826 1316q-4 -53 -18 -90.5t-35.5 -62t-50 -36t-60.5 -11.5q-36 0 -67.5 16.5t-60.5 36.5t-56 36.5t-54 16.5q-24 0 -46 -20t-30 -68h-64q4 52 18 90t35.5 62.5t50 36
t60.5 11.5q36 0 68 -16.5t61 -36.5t56.5 -36.5t54.5 -16.5q26 0 48 20t30 68h60z" />
    <glyph glyph-name="odieresis" unicode="&#xf6;" horiz-adv-x="1082" 
d="M282 1232q0 42 29 73t77 31q24 0 44 -8.5t34 -22.5t22 -33t8 -40q0 -20 -8 -38.5t-22 -32.5t-34 -22.5t-44 -8.5t-43.5 8.5t-33.5 22.5t-21.5 32.5t-7.5 38.5zM614 1232q0 21 7.5 40t21.5 33t34 22.5t45 8.5q48 0 77 -31t29 -73q0 -20 -7.5 -38.5t-21.5 -32.5
t-33.5 -22.5t-43.5 -8.5q-25 0 -45 8.5t-34 22.5t-21.5 32.5t-7.5 38.5zM70 452q0 102 34 189.5t95.5 152t148 101.5t192.5 37t193 -37t149 -101.5t96 -152t34 -189.5q0 -103 -34 -191t-96 -152.5t-149 -101.5t-193 -37t-192.5 37t-148 101.5t-95.5 152.5t-34 191zM262 452
q0 -87 15 -161t48 -128t86 -84.5t129 -30.5t129 30.5t86.5 84.5t49 128t15.5 161t-15.5 160.5t-49 127.5t-86.5 84t-129 30t-129 -30t-86 -84t-48 -127.5t-15 -160.5z" />
    <glyph glyph-name="divide" unicode="&#xf7;" horiz-adv-x="1104" 
d="M20 752h1064v-100h-1064v100zM424 1050q0 26 9 49t25.5 39.5t39.5 26t52 9.5q28 0 51 -9.5t39.5 -26t26 -39.5t9.5 -49t-9.5 -49t-26 -40t-39.5 -27t-51 -10q-29 0 -52 10t-39.5 27t-25.5 40t-9 49zM424 352q0 26 9 49t25.5 39.5t39.5 26t52 9.5q28 0 51 -9.5t39.5 -26
t26 -39.5t9.5 -49t-9.5 -49t-26 -40t-39.5 -27t-51 -10q-29 0 -52 10t-39.5 27t-25.5 40t-9 49z" />
    <glyph glyph-name="oslash" unicode="&#xf8;" horiz-adv-x="1082" 
d="M70 452q0 102 34 189.5t95.5 152t148 101.5t192.5 37q86 0 159.5 -25t132.5 -69l56 64h104l-104 -116q59 -65 91.5 -149.5t32.5 -184.5q0 -103 -34 -191t-96 -152.5t-149 -101.5t-193 -37q-86 0 -159.5 24t-130.5 68l-56 -62h-104l102 114q-59 65 -90.5 151t-31.5 187z
M262 452q0 -63 7.5 -119t24.5 -103l456 516q-33 51 -84.5 79.5t-125.5 28.5q-76 0 -129 -30t-86 -84t-48 -127.5t-15 -160.5zM820 452q0 62 -7.5 116.5t-24.5 101.5l-458 -516q33 -51 84.5 -78.5t125.5 -27.5q76 0 129 30.5t86.5 84.5t49 128t15.5 161z" />
    <glyph glyph-name="ugrave" unicode="&#xf9;" horiz-adv-x="1128" 
d="M628 776l250 156h62v-778q0 -27 5.5 -45t20.5 -30t41 -18.5t67 -10.5v-50q-77 0 -155 -7.5t-155 -22.5v98q-29 -18 -66 -35.5t-77.5 -31.5t-83.5 -22.5t-83 -8.5q-44 0 -94 10.5t-92 40.5t-70 82.5t-28 136.5v430q0 36 -14.5 51t-47.5 15h-72v40l250 156h60v-692
q0 -44 11.5 -76t32.5 -52.5t50 -30t64 -9.5q69 0 133.5 23.5t126.5 62.5v512q0 36 -14.5 51t-49.5 15h-72v40zM626 1018h-82l-266 234q-24 21 -33 32.5t-9 25.5t7.5 22t24.5 8h118q23 0 35 -8.5t21 -23.5z" />
    <glyph glyph-name="uacute" unicode="&#xfa;" horiz-adv-x="1128" 
d="M682 1308q11 15 22 23.5t34 8.5h120q15 0 23.5 -8t8.5 -22t-9.5 -25.5t-32.5 -32.5l-268 -234h-80zM628 776l250 156h62v-778q0 -27 5.5 -45t20.5 -30t41 -18.5t67 -10.5v-50q-77 0 -155 -7.5t-155 -22.5v98q-29 -18 -66 -35.5t-77.5 -31.5t-83.5 -22.5t-83 -8.5
q-44 0 -94 10.5t-92 40.5t-70 82.5t-28 136.5v430q0 36 -14.5 51t-47.5 15h-72v40l250 156h60v-692q0 -44 11.5 -76t32.5 -52.5t50 -30t64 -9.5q69 0 133.5 23.5t126.5 62.5v512q0 36 -14.5 51t-49.5 15h-72v40z" />
    <glyph glyph-name="ucircumflex" unicode="&#xfb;" horiz-adv-x="1128" 
d="M450 1310q12 18 26.5 27t35.5 9h86q21 0 35 -9t25 -27l200 -294h-82l-222 212l-222 -212h-82zM628 776l250 156h62v-778q0 -27 5.5 -45t20.5 -30t41 -18.5t67 -10.5v-50q-77 0 -155 -7.5t-155 -22.5v98q-29 -18 -66 -35.5t-77.5 -31.5t-83.5 -22.5t-83 -8.5
q-44 0 -94 10.5t-92 40.5t-70 82.5t-28 136.5v430q0 36 -14.5 51t-47.5 15h-72v40l250 156h60v-692q0 -44 11.5 -76t32.5 -52.5t50 -30t64 -9.5q69 0 133.5 23.5t126.5 62.5v512q0 36 -14.5 51t-49.5 15h-72v40z" />
    <glyph glyph-name="udieresis" unicode="&#xfc;" horiz-adv-x="1128" 
d="M280 1232q0 42 29 73t77 31q24 0 44 -8.5t34 -22.5t22 -33t8 -40q0 -20 -8 -38.5t-22 -32.5t-34 -22.5t-44 -8.5t-43.5 8.5t-33.5 22.5t-21.5 32.5t-7.5 38.5zM612 1232q0 21 7.5 40t21.5 33t34 22.5t45 8.5q48 0 77 -31t29 -73q0 -20 -7.5 -38.5t-21.5 -32.5
t-33.5 -22.5t-43.5 -8.5q-25 0 -45 8.5t-34 22.5t-21.5 32.5t-7.5 38.5zM628 776l250 156h62v-778q0 -27 5.5 -45t20.5 -30t41 -18.5t67 -10.5v-50q-77 0 -155 -7.5t-155 -22.5v98q-29 -18 -66 -35.5t-77.5 -31.5t-83.5 -22.5t-83 -8.5q-44 0 -94 10.5t-92 40.5t-70 82.5
t-28 136.5v430q0 36 -14.5 51t-47.5 15h-72v40l250 156h60v-692q0 -44 11.5 -76t32.5 -52.5t50 -30t64 -9.5q69 0 133.5 23.5t126.5 62.5v512q0 36 -14.5 51t-49.5 15h-72v40z" />
    <glyph glyph-name="yacute" unicode="&#xfd;" horiz-adv-x="926" 
d="M440 -176q-45 -113 -115.5 -167.5t-164.5 -54.5q-40 0 -75 8.5t-61.5 25t-42 40t-15.5 52.5q0 38 27 66t71 28q32 0 52.5 -15.5t37.5 -33.5t34.5 -33.5t43.5 -15.5q41 0 73 38t55 98l46 118l-266 700q-17 46 -31 77.5t-30.5 51.5t-39 30.5t-57.5 14.5v50h440v-50
q-53 -4 -80 -14t-35 -30t-1 -52t24 -78l174 -460l184 460q18 46 21 77.5t-9 51.5t-39.5 30.5t-70.5 14.5v50h354v-50q-29 -4 -50.5 -14.5t-40 -30.5t-35.5 -51.5t-36 -77.5zM612 1308q11 15 22 23.5t34 8.5h120q15 0 23.5 -8t8.5 -22t-9.5 -25.5t-32.5 -32.5l-268 -234h-80z
" />
    <glyph glyph-name="thorn" unicode="&#xfe;" horiz-adv-x="1106" 
d="M42 -368v50q41 4 67.5 10.5t41.5 18t21 29.5t6 44v1384q0 36 -14.5 51t-47.5 15h-80v40l256 156h62v-600q47 48 112.5 75t153.5 27q100 0 177.5 -37t130.5 -101.5t80.5 -152.5t27.5 -189q0 -102 -28 -190t-82 -153t-134 -102t-184 -37q-85 0 -147 24t-107 68v-278
q0 -26 5.5 -44t20.5 -29.5t41 -18t67 -10.5v-50h-446zM576 846q-74 0 -129 -29.5t-93 -80.5v-570q38 -51 93 -80.5t129 -29.5q75 0 126 29t82.5 81.5t45.5 125.5t14 160t-14 159.5t-45.5 124.5t-82.5 81t-126 29z" />
    <glyph glyph-name="ydieresis" unicode="&#xff;" horiz-adv-x="926" 
d="M440 -176q-45 -113 -115.5 -167.5t-164.5 -54.5q-40 0 -75 8.5t-61.5 25t-42 40t-15.5 52.5q0 38 27 66t71 28q32 0 52.5 -15.5t37.5 -33.5t34.5 -33.5t43.5 -15.5q41 0 73 38t55 98l46 118l-266 700q-17 46 -31 77.5t-30.5 51.5t-39 30.5t-57.5 14.5v50h440v-50
q-53 -4 -80 -14t-35 -30t-1 -52t24 -78l174 -460l184 460q18 46 21 77.5t-9 51.5t-39.5 30.5t-70.5 14.5v50h354v-50q-29 -4 -50.5 -14.5t-40 -30.5t-35.5 -51.5t-36 -77.5zM194 1232q0 42 29 73t77 31q24 0 44 -8.5t34 -22.5t22 -33t8 -40q0 -20 -8 -38.5t-22 -32.5
t-34 -22.5t-44 -8.5t-43.5 8.5t-33.5 22.5t-21.5 32.5t-7.5 38.5zM526 1232q0 21 7.5 40t21.5 33t34 22.5t45 8.5q48 0 77 -31t29 -73q0 -20 -7.5 -38.5t-21.5 -32.5t-33.5 -22.5t-43.5 -8.5q-25 0 -45 8.5t-34 22.5t-21.5 32.5t-7.5 38.5z" />
    <glyph glyph-name="dotlessi" unicode="&#x131;" horiz-adv-x="552" 
d="M52 0v50q41 4 67.5 10.5t41.5 18.5t21 30t6 45v516q0 36 -14.5 51t-47.5 15h-74v40l250 156h62v-778q0 -27 5.5 -45t20.5 -30t41 -18.5t67 -10.5v-50h-446z" />
    <glyph glyph-name="OE" unicode="&#x152;" horiz-adv-x="2302" 
d="M1644 90q114 0 202 22t158.5 62.5t128.5 96t113 123.5l40 -26l-194 -368h-1026q-66 -15 -139 -22.5t-139 -7.5q-167 0 -297.5 54.5t-220 152t-136 231.5t-46.5 292t46.5 292t136 231.5t220 152t297.5 54.5q31 0 67 -2t72.5 -5.5t72 -9.5t66.5 -13h1028l132 -326l-40 -22
q-48 64 -100 112t-114.5 80.5t-138.5 49t-173 16.5h-222q-29 0 -44.5 -15.5t-15.5 -44.5v-474h324q55 0 90 12.5t55 36.5t28.5 60.5t12.5 84.5h54v-478h-54q-4 48 -12.5 84.5t-28.5 60.5t-55 36.5t-90 12.5h-324v-536q0 -29 15.5 -44.5t44.5 -15.5h206zM308 700
q0 -140 24 -258t80 -203.5t148 -133t228 -47.5q109 0 185.5 28t124.5 80.5t70 127t22 168.5v486q0 100 -22 174t-70 123.5t-124.5 74t-185.5 24.5q-136 0 -228 -48t-148 -133.5t-80 -204t-24 -258.5z" />
    <glyph glyph-name="oe" unicode="&#x153;" horiz-adv-x="1732" 
d="M1016 548q-3 -21 -3.5 -41t-0.5 -41q0 -89 15 -164.5t51 -130.5t96 -86t150 -31q98 0 176.5 61.5t125.5 168.5l74 -34q-26 -62 -63.5 -113.5t-86.5 -88.5t-109 -57.5t-131 -20.5q-142 0 -241.5 53t-156.5 145q-47 -74 -117.5 -121.5t-164.5 -64.5q-32 -6 -63.5 -8
t-64.5 0q-97 5 -176.5 43.5t-136.5 102.5t-88 149t-31 183q0 102 34 189.5t95.5 152t148 101.5t192.5 37q124 0 218.5 -52.5t153.5 -143.5q44 72 111.5 119.5t156.5 64.5q32 6 63.5 8.5t64.5 -0.5q79 -5 144.5 -32t112.5 -75t73 -116.5t26 -156.5h-648zM262 452
q0 -87 15 -161t48 -128t86 -84.5t129 -30.5t129 30.5t86.5 84.5t49 128t15.5 161t-15.5 160.5t-49 127.5t-86.5 84t-129 30t-129 -30t-86 -84t-48 -127.5t-15 -160.5zM1274 854q-59 0 -101.5 -16t-72.5 -45.5t-48 -71t-28 -93.5h462q0 55 -16 97t-44.5 70.5t-67 43.5
t-84.5 15z" />
    <glyph glyph-name="Scaron" unicode="&#x160;" horiz-adv-x="1372" 
d="M374 1814h82l222 -212l222 212h82l-200 -294q-11 -17 -25 -26.5t-35 -9.5h-86q-21 0 -35.5 9.5t-26.5 26.5zM324 1122q0 -55 27 -94t73 -68t107.5 -50t130.5 -39.5t142 -37.5t142 -43t130.5 -56t107.5 -77.5t73 -107t27 -143.5q0 -96 -40.5 -176t-113 -138t-172.5 -90
t-218 -32q-130 0 -242 30.5t-204 81.5l-34 -82h-60l-130 430l46 14q52 -100 120.5 -173t148 -121t168 -71t181.5 -23q77 0 145 21.5t118 59.5t79 91t28 116q0 61 -27 105.5t-73 76.5t-107.5 55.5t-130 42.5t-141 37.5t-141.5 41t-130 52.5t-107 72t-72.5 99.5t-26.5 135.5
q0 80 37.5 147.5t102 116.5t151.5 76.5t187 27.5q69 0 128.5 -8.5t109 -22t89.5 -32t71 -37.5l28 70h60l122 -390l-44 -16q-41 84 -95 149t-122.5 110t-151.5 68t-183 23q-74 0 -132.5 -18t-99 -48t-61.5 -70.5t-21 -85.5z" />
    <glyph glyph-name="scaron" unicode="&#x161;" horiz-adv-x="928" 
d="M162 1346h82l222 -212l222 212h82l-200 -294q-11 -17 -25 -26.5t-35 -9.5h-86q-21 0 -35.5 9.5t-26.5 26.5zM240 726q0 -43 27.5 -70.5t72 -46t101.5 -32t117 -28.5t117 -35t101.5 -51.5t72 -79t27.5 -117.5q0 -68 -27.5 -122.5t-75.5 -93t-113.5 -59.5t-141.5 -21
q-97 0 -181 27.5t-137 68.5l-24 -66h-52l-72 302l44 14q45 -71 92.5 -122t99 -83.5t108 -47.5t120.5 -15q40 0 78 9.5t68 29t48 50t18 73.5q0 48 -27.5 78.5t-73 51t-103.5 34.5t-118 28.5t-118 33t-103.5 48.5t-73 74.5t-27.5 111.5q0 54 23.5 101.5t66.5 83.5t103 56.5
t133 20.5q95 0 163 -22.5t113 -57.5l20 50h50l58 -258l-44 -16q-35 62 -75 105.5t-83.5 70.5t-91 39.5t-98.5 12.5q-92 0 -137 -37t-45 -93z" />
    <glyph glyph-name="Ydieresis" unicode="&#x178;" horiz-adv-x="1260" 
d="M342 50q60 4 98 10t59 23.5t29 50.5t8 90v314l-364 638q-26 44 -46 75.5t-41 52t-47.5 31.5t-63.5 15v50h526v-50q-52 -4 -84.5 -15t-46 -31.5t-7.5 -51.5t32 -74l294 -516l280 514q24 45 29 76.5t-8.5 52t-47 31t-85.5 14.5v50h430v-50q-42 -4 -71.5 -14.5t-52.5 -30.5
t-43.5 -51.5t-44.5 -77.5l-340 -632v-320q0 -57 8 -90t29 -50.5t59 -23.5t98 -10v-50h-586v50zM356 1700q0 42 29 73t77 31q24 0 44 -8.5t34 -22.5t22 -33t8 -40q0 -20 -8 -38.5t-22 -32.5t-34 -22.5t-44 -8.5t-43.5 8.5t-33.5 22.5t-21.5 32.5t-7.5 38.5zM688 1700
q0 21 7.5 40t21.5 33t34 22.5t45 8.5q48 0 77 -31t29 -73q0 -20 -7.5 -38.5t-21.5 -32.5t-33.5 -22.5t-43.5 -8.5q-25 0 -45 8.5t-34 22.5t-21.5 32.5t-7.5 38.5z" />
    <glyph glyph-name="Zcaron" unicode="&#x17d;" horiz-adv-x="1304" 
d="M348 1814h82l222 -212l222 212h82l-200 -294q-11 -17 -25 -26.5t-35 -9.5h-86q-21 0 -35.5 9.5t-26.5 26.5zM948 1310h-282q-97 0 -172 -16.5t-136.5 -49t-112 -80.5t-97.5 -112l-42 22l134 326h972v-50l-884 -1260h294q115 0 201.5 22t154.5 62.5t123.5 96t110.5 123.5
l40 -26l-196 -368h-994v50z" />
    <glyph glyph-name="zcaron" unicode="&#x17e;" horiz-adv-x="944" 
d="M158 1346h82l222 -212l222 212h82l-200 -294q-11 -17 -25 -26.5t-35 -9.5h-86q-21 0 -35.5 9.5t-26.5 26.5zM610 824h-124q-71 0 -125 -8.5t-98 -30t-81 -58t-72 -91.5l-46 20l84 246h696v-50l-558 -774h170q78 0 137 17t106.5 48.5t86 75.5t76.5 97l40 -22l-128 -294
h-722v50z" />
    <glyph glyph-name="florin" unicode="&#x192;" 
d="M116 772h324l62 248q24 94 66.5 170t100 129.5t127.5 82t150 28.5q71 0 114.5 -29.5t43.5 -76.5q0 -42 -26.5 -69t-67.5 -27q-35 0 -53 15t-32 33t-30 33t-45 15q-42 0 -78 -38t-54 -112l-100 -402h346v-78h-366l-164 -658q-27 -111 -71.5 -192.5t-102 -135.5t-127 -80
t-145.5 -26q-33 0 -61.5 7t-49.5 20.5t-33 34.5t-12 50q0 18 7 34.5t19 28.5t28.5 19.5t35.5 7.5q33 0 51.5 -15t32.5 -33t29 -33t41 -15q42 0 79.5 35t58.5 115l206 836h-304v78z" />
    <glyph glyph-name="circumflex" unicode="&#x2c6;" horiz-adv-x="1032" 
d="M410 1310q12 18 26.5 27t35.5 9h86q21 0 35 -9t25 -27l200 -294h-82l-222 212l-222 -212h-82z" />
    <glyph glyph-name="caron" unicode="&#x2c7;" horiz-adv-x="1032" 
d="M210 1346h82l222 -212l222 212h82l-200 -294q-11 -17 -25 -26.5t-35 -9.5h-86q-21 0 -35.5 9.5t-26.5 26.5z" />
    <glyph glyph-name="ring" unicode="&#x2da;" horiz-adv-x="996" 
d="M298 1230q0 41 15.5 77.5t42.5 63.5t63 43t77 16q42 0 79 -16t64 -43t43 -63.5t16 -77.5q0 -40 -16 -76t-43 -63t-64 -43t-79 -16q-41 0 -77 16t-63 43t-42.5 63t-15.5 76zM376 1230q0 -26 9 -49t25.5 -39.5t38 -26t47.5 -9.5t49 9.5t40 26t27 39.5t10 49t-10 49
t-27 39.5t-40 26t-49 9.5t-47.5 -9.5t-38 -26t-25.5 -39.5t-9 -49z" />
    <glyph glyph-name="tilde" unicode="&#x2dc;" horiz-adv-x="1032" 
d="M786 1316q-4 -53 -18 -90.5t-35.5 -62t-50 -36t-60.5 -11.5q-36 0 -67.5 16.5t-60.5 36.5t-56 36.5t-54 16.5q-24 0 -46 -20t-30 -68h-64q4 52 18 90t35.5 62.5t50 36t60.5 11.5q36 0 68 -16.5t61 -36.5t56.5 -36.5t54.5 -16.5q26 0 48 20t30 68h60z" />
    <glyph glyph-name="endash" unicode="&#x2013;" horiz-adv-x="1104" 
d="M20 490h1064v-78h-1064v78z" />
    <glyph glyph-name="emdash" unicode="&#x2014;" horiz-adv-x="1634" 
d="M20 490h1594v-78h-1594v78z" />
    <glyph glyph-name="quoteleft" unicode="&#x2018;" horiz-adv-x="480" 
d="M364.014 1032.01q0 -25.9971 -8.99902 -48.9941t-25.4961 -39.4951q-16.498 -16.498 -39.4951 -25.9961q-22.998 -9.49902 -51.9941 -9.49902q-55.9932 0 -90.9893 38.4951q-34.9951 38.4951 -34.9951 107.486q0 48.9941 16.998 103.488q16.998 54.4932 43.9941 106.986
q26.9971 52.4941 60.9922 99.4883q33.9961 46.9941 67.9922 79.9902l39.9951 -29.9961q-24.9971 -32.9961 -44.9941 -63.9922q-19.998 -30.9971 -34.9961 -61.9932t-25.4971 -62.9922q-10.498 -31.9961 -16.498 -66.9912q34.9961 0 61.9922 -9.99902
q26.9971 -9.99902 44.9951 -26.9971t27.4961 -39.9951q9.49902 -22.9971 9.49902 -48.9941z" />
    <glyph glyph-name="quoteright" unicode="&#x2019;" horiz-adv-x="480" 
d="M114 1306q0 26 9 49t25.5 39.5t39.5 26t52 9.5q56 0 91 -38.5t35 -107.5q0 -49 -17 -103.5t-44 -107t-61 -99.5t-68 -80l-40 30q25 33 45 64t35 62t25.5 63t16.5 67q-35 0 -62 10t-45 27t-27.5 40t-9.5 49z" />
    <glyph glyph-name="quotesinglbase" unicode="&#x201a;" horiz-adv-x="480" 
d="M114 106q0 26 9 49t25.5 39.5t39.5 26t52 9.5q56 0 91 -38.5t35 -107.5q0 -49 -17 -103.5t-44 -107t-61 -99.5t-68 -80l-40 30q25 33 45 64t35 62t25.5 63t16.5 67q-35 0 -62 10t-45 27t-27.5 40t-9.5 49z" />
    <glyph glyph-name="quotedblleft" unicode="&#x201c;" horiz-adv-x="846" 
d="M732.014 1032.01q0 -25.9971 -8.99902 -48.9941t-25.4961 -39.4951q-16.498 -16.498 -39.4951 -25.9961q-22.998 -9.49902 -51.9941 -9.49902q-55.9932 0 -90.9893 38.4951q-34.9951 38.4951 -34.9951 107.486q0 48.9941 16.998 103.488q16.998 54.4932 43.9941 106.986
q26.9971 52.4941 60.9922 99.4883q33.9961 46.9941 67.9922 79.9902l39.9951 -29.9961q-24.9971 -32.9961 -44.9941 -63.9922q-19.998 -30.9971 -34.9961 -61.9932t-25.4971 -62.9922q-10.498 -31.9961 -16.498 -66.9912q34.9961 0 61.9922 -9.99902
q26.9971 -9.99902 44.9951 -26.9971t27.4961 -39.9951q9.49902 -22.9971 9.49902 -48.9941zM364.014 1032.01q0 -25.9971 -8.99902 -48.9941t-25.4961 -39.4951q-16.498 -16.498 -39.4951 -25.9961q-22.998 -9.49902 -51.9941 -9.49902q-55.9932 0 -90.9893 38.4951
q-34.9951 38.4951 -34.9951 107.486q0 48.9941 16.998 103.488q16.998 54.4932 43.9941 106.986q26.9971 52.4941 60.9922 99.4883q33.9961 46.9941 67.9922 79.9902l39.9951 -29.9961q-24.9971 -32.9961 -44.9941 -63.9922q-19.998 -30.9971 -34.9961 -61.9932
t-25.4971 -62.9922q-10.498 -31.9961 -16.498 -66.9912q34.9961 0 61.9922 -9.99902q26.9971 -9.99902 44.9951 -26.9971t27.4961 -39.9951q9.49902 -22.9971 9.49902 -48.9941z" />
    <glyph glyph-name="quotedblright" unicode="&#x201d;" horiz-adv-x="846" 
d="M480 1306q0 26 9 49t25.5 39.5t39.5 26t52 9.5q56 0 91 -38.5t35 -107.5q0 -49 -17 -103.5t-44 -107t-61 -99.5t-68 -80l-40 30q25 33 45 64t35 62t25.5 63t16.5 67q-35 0 -62 10t-45 27t-27.5 40t-9.5 49zM114 1306q0 26 9 49t25.5 39.5t39.5 26t52 9.5q56 0 91 -38.5
t35 -107.5q0 -49 -17 -103.5t-44 -107t-61 -99.5t-68 -80l-40 30q25 33 45 64t35 62t25.5 63t16.5 67q-35 0 -62 10t-45 27t-27.5 40t-9.5 49z" />
    <glyph glyph-name="quotedblbase" unicode="&#x201e;" horiz-adv-x="846" 
d="M480 106q0 26 9 49t25.5 39.5t39.5 26t52 9.5q56 0 91 -38.5t35 -107.5q0 -49 -17 -103.5t-44 -107t-61 -99.5t-68 -80l-40 30q25 33 45 64t35 62t25.5 63t16.5 67q-35 0 -62 10t-45 27t-27.5 40t-9.5 49zM114 106q0 26 9 49t25.5 39.5t39.5 26t52 9.5q56 0 91 -38.5
t35 -107.5q0 -49 -17 -103.5t-44 -107t-61 -99.5t-68 -80l-40 30q25 33 45 64t35 62t25.5 63t16.5 67q-35 0 -62 10t-45 27t-27.5 40t-9.5 49z" />
    <glyph glyph-name="dagger" unicode="&#x2020;" horiz-adv-x="842" 
d="M496 1348q0 -26 -7 -50t-16 -53.5t-18.5 -68t-14.5 -92.5q53 6 91.5 15.5t68 18.5t53.5 15.5t49 6.5q38 0 60 -21t22 -53q0 -30 -22 -52t-60 -22q-25 0 -49 6.5t-53.5 15.5t-68 18t-91.5 14q5 -50 14.5 -73t18.5 -35.5t16 -22.5t7 -35q0 -13 -2.5 -60.5t-7.5 -111.5
t-12 -134.5t-15.5 -130t-18.5 -98.5t-20 -39t-19.5 39t-17.5 98.5t-15 130t-12 134.5t-7.5 111.5t-2.5 60.5q0 25 6.5 35t15.5 22.5t18 35.5t14 73q-53 -5 -91 -14t-67.5 -18t-53 -15.5t-48.5 -6.5q-38 0 -61 22t-23 52q0 32 23 53t59 21q25 0 49.5 -6.5t54 -15.5
t67.5 -18.5t91 -15.5q-5 54 -14 92.5t-18 68t-15.5 53.5t-6.5 50q0 36 22 59t52 23q32 0 54 -23t22 -59z" />
    <glyph glyph-name="daggerdbl" unicode="&#x2021;" horiz-adv-x="842" 
d="M496 1348q0 -26 -7 -50t-16 -53.5t-18.5 -68t-14.5 -92.5q53 6 91.5 15.5t68 18.5t53.5 15.5t49 6.5q38 0 60 -21t22 -53q0 -30 -22 -52t-60 -22q-25 0 -49 6.5t-53.5 15.5t-68 18t-91.5 14q5 -50 14.5 -73t18.5 -35.5t16 -22.5t7 -35q0 -13 -2.5 -43.5t-7.5 -69t-12 -80
t-15.5 -75.5t-18.5 -56t-20 -22t-19.5 22t-17.5 56t-15 75.5t-12 80t-7.5 69t-2.5 43.5q0 25 6.5 35t15.5 22.5t18 35.5t14 73q-53 -5 -91 -14t-67.5 -18t-53 -15.5t-48.5 -6.5q-38 0 -61 22t-23 52q0 32 23 53t59 21q25 0 49.5 -6.5t54 -15.5t67.5 -18.5t91 -15.5
q-5 54 -14 92.5t-18 68t-15.5 53.5t-6.5 50q0 36 22 59t52 23q32 0 54 -23t22 -59zM346 -316q0 25 6.5 49.5t15.5 54t18 68t14 92.5q-53 -6 -91 -15.5t-67.5 -18.5t-53 -15.5t-48.5 -6.5q-39 0 -61.5 21t-22.5 53t22.5 53t61.5 21q25 0 48.5 -6.5t53 -15.5t67.5 -18t91 -14
q-5 50 -14 73.5t-18 36t-15.5 23t-6.5 35.5q0 12 2.5 42.5t7.5 68.5t12 79t15 74.5t17.5 55.5t19.5 22t20 -22t18.5 -55.5t15.5 -74.5t12 -79t7.5 -68t2.5 -43q0 -25 -7 -35.5t-16 -23t-18.5 -36t-14.5 -73.5q53 5 91 14t67.5 18t53.5 15.5t50 6.5q38 0 60 -21t22 -53
t-22 -53t-60 -21q-26 0 -50 6.5t-53.5 15.5t-67.5 18.5t-91 15.5q5 -54 14.5 -92.5t18.5 -68t16 -54t7 -49.5q0 -36 -22 -59t-54 -23q-30 0 -52 23t-22 59z" />
    <glyph glyph-name="bullet" unicode="&#x2022;" horiz-adv-x="560" 
d="M56 466q0 46 17.5 87t48 71.5t71 48t87.5 17.5q46 0 86.5 -17.5t70.5 -48t47.5 -71.5t17.5 -87q0 -47 -17.5 -87.5t-47.5 -70.5t-70.5 -47t-86.5 -17q-47 0 -87.5 17t-71 47t-48 70.5t-17.5 87.5z" />
    <glyph glyph-name="ellipsis" unicode="&#x2026;" horiz-adv-x="1438" 
d="M114 106q0 26 9 49t25.5 39.5t39.5 26t52 9.5q28 0 51 -9.5t39.5 -26t26 -39.5t9.5 -49t-9.5 -49t-26 -40t-39.5 -27t-51 -10q-29 0 -52 10t-39.5 27t-25.5 40t-9 49zM592 106q0 26 9 49t25.5 39.5t39.5 26t52 9.5q28 0 51 -9.5t39.5 -26t26 -39.5t9.5 -49t-9.5 -49
t-26 -40t-39.5 -27t-51 -10q-29 0 -52 10t-39.5 27t-25.5 40t-9 49zM1072 106q0 26 9 49t25.5 39.5t39.5 26t52 9.5q28 0 51 -9.5t39.5 -26t26 -39.5t9.5 -49t-9.5 -49t-26 -40t-39.5 -27t-51 -10q-29 0 -52 10t-39.5 27t-25.5 40t-9 49z" />
    <glyph glyph-name="perthousand" unicode="&#x2030;" horiz-adv-x="2498" 
d="M62 980q0 99 20.5 180t61 138t100 88.5t136.5 31.5q78 0 137.5 -31.5t100 -88.5t61.5 -138t21 -180t-21 -180t-61.5 -138t-100 -88.5t-137.5 -31.5q-77 0 -136.5 31.5t-100 88.5t-61 138t-20.5 180zM222 980q0 -89 6.5 -159.5t24 -119t48 -74t79.5 -25.5t80.5 25.5t49 74
t24 119t6.5 159.5q0 90 -6.5 160.5t-24 118.5t-49 73.5t-80.5 25.5t-79.5 -25.5t-48 -73.5t-24 -118.5t-6.5 -160.5zM1280 1400h86l-912 -1400h-86zM1036 420q0 99 20.5 180t61 138t100 88.5t136.5 31.5q78 0 137.5 -31.5t100 -88.5t61.5 -138t21 -180t-21 -180t-61.5 -138
t-100 -88.5t-137.5 -31.5q-77 0 -136.5 31.5t-100 88.5t-61 138t-20.5 180zM1196 420q0 -89 6.5 -159.5t24 -119t48 -74t79.5 -25.5t80.5 25.5t49 74t24 119t6.5 159.5q0 90 -6.5 160.5t-24 118.5t-49 73.5t-80.5 25.5t-79.5 -25.5t-48 -73.5t-24 -118.5t-6.5 -160.5z
M1798 420q0 99 20.5 180t61 138t100 88.5t136.5 31.5q78 0 137.5 -31.5t100 -88.5t61.5 -138t21 -180t-21 -180t-61.5 -138t-100 -88.5t-137.5 -31.5q-77 0 -136.5 31.5t-100 88.5t-61 138t-20.5 180zM1958 420q0 -89 6.5 -159.5t24 -119t48 -74t79.5 -25.5t80.5 25.5t49 74
t24 119t6.5 159.5q0 90 -6.5 160.5t-24 118.5t-49 73.5t-80.5 25.5t-79.5 -25.5t-48 -73.5t-24 -118.5t-6.5 -160.5z" />
    <glyph glyph-name="guilsinglleft" unicode="&#x2039;" horiz-adv-x="648" 
d="M486 32l-342 380q-9 11 -15.5 25t-6.5 29q0 31 22 56l342 380l40 -28l-194 -408l194 -406z" />
    <glyph glyph-name="guilsinglright" unicode="&#x203a;" horiz-adv-x="648" 
d="M160.06 32l341.958 380q8.99902 11 15.498 25t6.49902 29q0 31 -21.9971 56l-341.958 380l-39.9951 -28l193.977 -408l-193.977 -406z" />
    <glyph glyph-name="fraction" unicode="&#x2044;" horiz-adv-x="214" 
d="M520 1400h86l-912 -1400h-86z" />
    <glyph glyph-name="uni2070" unicode="&#x2070;" horiz-adv-x="762" 
d="M62 980q0 99 20.5 180t61 138t100 88.5t136.5 31.5q78 0 137.5 -31.5t100 -88.5t61.5 -138t21 -180t-21 -180t-61.5 -138t-100 -88.5t-137.5 -31.5q-77 0 -136.5 31.5t-100 88.5t-61 138t-20.5 180zM222 980q0 -89 6.5 -159.5t24 -119t48 -74t79.5 -25.5t80.5 25.5t49 74
t24 119t6.5 159.5q0 90 -6.5 160.5t-24 118.5t-49 73.5t-80.5 25.5t-79.5 -25.5t-48 -73.5t-24 -118.5t-6.5 -160.5z" />
    <glyph glyph-name="Euro" unicode="&#x20ac;" 
d="M82 868h124q16 139 59 244.5t107.5 176t148 106t181.5 35.5q83 0 149 -26.5t111.5 -68.5t69.5 -94.5t24 -104.5q0 -44 -12.5 -79.5t-33.5 -60.5t-50 -38.5t-62 -13.5q-29 0 -51 9.5t-37 24.5t-22.5 35t-7.5 41q0 26 9.5 46.5t25.5 35t37 22.5t44 10q14 0 22 4.5t8 15.5
q0 33 -15 62t-42.5 50t-66 33.5t-84.5 12.5q-78 0 -132 -32t-89 -93t-53 -150t-24 -203h402v-78h-406v-90v-52.5t2 -49.5h404v-80h-400q10 -110 32.5 -195.5t60.5 -144t92 -88.5t127 -30q102 0 171.5 60t116.5 168l78 -38q-26 -62 -62.5 -113.5t-84 -88.5t-106.5 -57.5
t-131 -20.5q-101 0 -186.5 34.5t-151.5 103.5t-109.5 171.5t-60.5 238.5h-126v80h118q-2 24 -3 49.5t-1 52.5v45t2 45h-116v78z" />
    <glyph glyph-name="trademark" unicode="&#x2122;" horiz-adv-x="966" 
d="M744 980v22q16 1 26 3t16 6.5t8 13t2 23.5v278l-128 -346h-30l-124 346v-278q0 -15 2 -23.5t7.5 -13t15 -6.5t25.5 -3v-22h-144v22q16 1 26 3t16 6.5t8 13t2 23.5v284q0 15 -2 23.5t-8 13t-16 6t-26 3.5v22h162l98 -270l98 270h158v-22q-16 -2 -25.5 -3.5t-15 -6
t-7.5 -13t-2 -23.5v-284q0 -15 2 -23.5t7.5 -13t15 -6.5t25.5 -3v-22h-192zM158 1346q0 8 -4.5 13t-13.5 5q-38 0 -63 -17t-51 -61l-20 8l42 120h22q6 -14 20 -14h232q15 0 18 14h24l40 -120l-20 -8q-24 44 -51 61t-65 17q-9 0 -13.5 -5t-4.5 -13v-298q0 -30 10 -36.5
t40 -9.5v-22h-192v22q16 1 25.5 3t15 6.5t7.5 13t2 23.5v298z" />
    <glyph glyph-name="minus" unicode="&#x2212;" horiz-adv-x="1104" 
d="M20 752h1064v-100h-1064v100z" />
    <glyph glyph-name="glyph225" horiz-adv-x="762" 
d="M62 420q0 99 20.5 180t61 138t100 88.5t136.5 31.5q78 0 137.5 -31.5t100 -88.5t61.5 -138t21 -180t-21 -180t-61.5 -138t-100 -88.5t-137.5 -31.5q-77 0 -136.5 31.5t-100 88.5t-61 138t-20.5 180zM222 420q0 -89 6.5 -159.5t24 -119t48 -74t79.5 -25.5t80.5 25.5t49 74
t24 119t6.5 159.5q0 90 -6.5 160.5t-24 118.5t-49 73.5t-80.5 25.5t-79.5 -25.5t-48 -73.5t-24 -118.5t-6.5 -160.5z" />
    <glyph glyph-name="glyph226" horiz-adv-x="762" 
d="M90 584q0 64 21.5 115t59 86.5t89.5 54t114 18.5q61 0 111.5 -18t86.5 -50t56 -77t20 -99q0 -70 -31 -134t-84 -123.5t-124 -115t-151 -107.5h296q17 0 28.5 2.5t20 11.5t15 28t14.5 52h44l-30 -254h-46q0 8 -4.5 17t-19.5 9h-476v72q72 58 142 120t125 129.5t89 140
t34 152.5q0 83 -37 129.5t-115 46.5q-37 0 -69.5 -12t-56.5 -37.5t-38 -64.5t-14 -92h-70z" />
    <glyph glyph-name="glyph227" horiz-adv-x="762" 
d="M406 0v210h-346v50l394 598h100v-582h150v-66h-150v-210h-148zM152 276h254v384z" />
    <glyph glyph-name="glyph230" horiz-adv-x="0" 
 />
  </font>
</defs>
</svg>
